Subcategories
Tags
Language
Tags

Charlie Parker Records: The Complete Collection, Vol. 23 - Charlie Parker - Birdology (2012 CP Records 233193/23 rec 1949}

Posted By: ruskaval
Charlie Parker Records: The Complete Collection, Vol. 23 - Charlie Parker - Birdology (2012 CP Records 233193/23 rec 1949}

Charlie Parker Records: The Complete Collection, Vol. 23 - Charlie Parker - Birdology (2012 CP Records 233193/23 rec 1949}
EAC rip (secure mode) | FLAC (tracks)+CUE+LOG -> 159 Mb | MP3 @320 -> 128 Mb
Full Artwork @ 600 dpi (jpg) -> 60 Mb | 5% repair rar
© 1949, 2012 Charlie Parker Records / Membran Media / Documents | 233193 / 23
Jazz / Bop / Saxophone

Exhaustive 30 CD collection from the Jazz legend's short-lived label. Contains 44 original albums (421 tracks) plus booklet. Every record-collector has run across an album with the little sax-playing bird in it's label-logo, right next to the brand name Charlie Parker Records or CP Parker Records. Turning the sleeve over, especially if it was one of the non-Parker releases, and seeing a '60s release date under the header Stereo-pact! Was as exciting an experience as it was confusing. Was the claim Bird Lives meant more literally than previously thought?

What do the Rays Nance and Barretto have to do with Charlie Parker? Who is the Satan in High Heels? When did Barney Kessel and Harold Land tame El Tigre? And what is Stereo-pact!, after all? Rumors are far and wide, speculation and misinformation abounds, while fans and experts discuss the releases of this short-lived label from the '60s at record fairs and in internet forums. But even though a discography can be found online, never before has anyone made an attempt to present the complete output of this legendary label in one set.
Charlie Parker Records: The Complete Collection, Vol. 23 - Charlie Parker - Birdology (2012 CP Records 233193/23 rec 1949}

Charlie Parker Records: The Complete Collection, Vol. 23 - Charlie Parker - Birdology (2012 CP Records 233193/23 rec 1949}

Charlie Parker Records: The Complete Collection, Vol. 23 - Charlie Parker - Birdology (2012 CP Records 233193/23 rec 1949}


see more INFO

============


Charlie Parker Records: The Complete Collection, Vol. 23 - Charlie Parker - Birdology (2012 CP Records 233193/23 rec 1949}


TRACKLISTING and PERSONNEL

CHARLIE PARKER - Birdology


01 - Jumpin’ with Symphony Sid (L. Young) (1:11)
02 - Be Bop (D. Gillespie) (3:40)
03 - Ooh Bop Sh’Bam (D. Gillespie) (4:45)
04 - Koko (Ellington) (2:23)
05 - Groovin’ High (D. Gillespie) (4:37)
06 - Slow Boat To China (Loesser) (4:12)
07 - Ornithology (C. Parker) (5:08)
08 - Cheryl (C. Parker) (4:20)
09 - Barbados (Dameron) (3:38)
10 - Hot House (Dameron) (5:00)
11 - East Of The Sun (Bowman) (4:30)
12 - Scrapple From The Apple (C. Parker) (4:00)
13 - 52nd Street Theme (T. Monk) (4:20)

Charlie Parker, alto sax - Kenny Dorham, trumpet - Al Haig, piano - Tommy Potter, bass - Joe Harris, drums

Recorded at the Royal Roost, January 1, 1949

Exact Audio Copy V1.3 from 2. September 2016

EAC extraction logfile from 29. June 2020, 14:25

Charlie Parker / Charlie Parker Records: The Complete Collection, Vol. 23 - Charlie Parker - Birdology

Used drive : ATAPI iHAS122 F Adapter: 1 ID: 1

Read mode : Secure
Utilize accurate stream : Yes
Defeat audio cache : Yes
Make use of C2 pointers : No

Read offset correction : 6
Overread into Lead-In and Lead-Out : No
Fill up missing offset samples with silence : Yes
Delete leading and trailing silent blocks : No
Null samples used in CRC calculations : Yes
Used interface : Native Win32 interface for Win NT & 2000
Gap handling : Appended to previous track

Used output format : User Defined Encoder
Selected bitrate : 1024 kBit/s
Quality : High
Add ID3 tag : No
Command line compressor : C:\Program Files (x86)\Exact Audio Copy_v1.3\Flac\flac.exe
Additional command line options : -8 -V -T "ARTIST=%artist%" -T "TITLE=%title%" -T "ALBUM=%albumtitle%" -T "DATE=%year%" -T "TRACKNUMBER=%tracknr%" -T "TOTALTRACKS=%numtracks%" -T "GENRE=%genre%" -T "ALBUMARTIST=%albumartist%" -T "ALBUM ARTIST=%albumartist%" -T "COMMENT=EAC Secure Mode, Test & Copy, AccurateRip, FLAC -8" %source%


TOC of the extracted CD

Track | Start | Length | Start sector | End sector
––––––––––––––––––––––––––––-
1 | 0:00.00 | 1:13.05 | 0 | 5479
2 | 1:13.05 | 3:38.20 | 5480 | 21849
3 | 4:51.25 | 4:43.66 | 21850 | 43140
4 | 9:35.16 | 2:24.22 | 43141 | 53962
5 | 11:59.38 | 4:35.37 | 53963 | 74624
6 | 16:35.00 | 4:08.40 | 74625 | 93264
7 | 20:43.40 | 5:04.68 | 93265 | 116132
8 | 25:48.33 | 4:28.69 | 116133 | 136301
9 | 30:17.27 | 3:38.66 | 136302 | 152717
10 | 33:56.18 | 4:58.64 | 152718 | 175131
11 | 38:55.07 | 4:25.17 | 175132 | 195023
12 | 43:20.24 | 3:57.69 | 195024 | 212867
13 | 47:18.18 | 4:17.17 | 212868 | 232159


Track 1

Filename F:\_EAC\Charlie Parker Records - The Complete Collection, Vol 23 (2012) [FLAC]\01 - Jumpin' With Symphony Sid.wav

Pre-gap length 0:00:02.00

Peak level 79.9 %
Extraction speed 3.5 X
Track quality 100.0 %
Test CRC 13DDBC39
Copy CRC 13DDBC39
Accurately ripped (confidence 8) [5A1AD1ED] (AR v2)
Copy OK

Track 2

Filename F:\_EAC\Charlie Parker Records - The Complete Collection, Vol 23 (2012) [FLAC]\02 - Be Bop.wav

Peak level 79.9 %
Extraction speed 4.9 X
Track quality 100.0 %
Test CRC 21A3837A
Copy CRC 21A3837A
Accurately ripped (confidence 8) [62FEA9AB] (AR v2)
Copy OK

Track 3

Filename F:\_EAC\Charlie Parker Records - The Complete Collection, Vol 23 (2012) [FLAC]\03 - Ooh Bop Sh'Bam.wav

Peak level 65.3 %
Extraction speed 4.7 X
Track quality 99.9 %
Test CRC 60F58783
Copy CRC 60F58783
Accurately ripped (confidence 8) [D7DE69D7] (AR v2)
Copy OK

Track 4

Filename F:\_EAC\Charlie Parker Records - The Complete Collection, Vol 23 (2012) [FLAC]\04 - Koko.wav

Peak level 75.6 %
Extraction speed 5.2 X
Track quality 100.0 %
Test CRC E7B2EA91
Copy CRC E7B2EA91
Accurately ripped (confidence 8) [D0E05003] (AR v2)
Copy OK

Track 5

Filename F:\_EAC\Charlie Parker Records - The Complete Collection, Vol 23 (2012) [FLAC]\05 - Groovin' High.wav

Peak level 71.9 %
Extraction speed 6.1 X
Track quality 100.0 %
Test CRC 6F8EA083
Copy CRC 6F8EA083
Accurately ripped (confidence 8) [9F0EFE27] (AR v2)
Copy OK

Track 6

Filename F:\_EAC\Charlie Parker Records - The Complete Collection, Vol 23 (2012) [FLAC]\06 - Slow Boat To China.wav

Peak level 72.5 %
Extraction speed 6.6 X
Track quality 100.0 %
Test CRC 24C39D96
Copy CRC 24C39D96
Accurately ripped (confidence 8) [346290BB] (AR v2)
Copy OK

Track 7

Filename F:\_EAC\Charlie Parker Records - The Complete Collection, Vol 23 (2012) [FLAC]\07 - Ornithology.wav

Peak level 74.9 %
Extraction speed 6.9 X
Track quality 100.0 %
Test CRC 981B2FA9
Copy CRC 981B2FA9
Accurately ripped (confidence 8) [DFBE3DBE] (AR v2)
Copy OK

Track 8

Filename F:\_EAC\Charlie Parker Records - The Complete Collection, Vol 23 (2012) [FLAC]\08 - Cheryl.wav

Peak level 83.4 %
Extraction speed 6.0 X
Track quality 99.9 %
Test CRC 472A7004
Copy CRC 472A7004
Accurately ripped (confidence 8) [6D4B98DF] (AR v2)
Copy OK

Track 9

Filename F:\_EAC\Charlie Parker Records - The Complete Collection, Vol 23 (2012) [FLAC]\09 - Barbados.wav

Peak level 81.3 %
Extraction speed 7.2 X
Track quality 100.0 %
Test CRC A2A9EB85
Copy CRC A2A9EB85
Accurately ripped (confidence 8) [7CD49361] (AR v2)
Copy OK

Track 10

Filename F:\_EAC\Charlie Parker Records - The Complete Collection, Vol 23 (2012) [FLAC]\10 - Hot House.wav

Peak level 68.3 %
Extraction speed 7.9 X
Track quality 100.0 %
Test CRC 385A57D9
Copy CRC 385A57D9
Accurately ripped (confidence 8) [A27A2D63] (AR v2)
Copy OK

Track 11

Filename F:\_EAC\Charlie Parker Records - The Complete Collection, Vol 23 (2012) [FLAC]\11 - East Of The Sun.wav

Peak level 82.7 %
Extraction speed 8.6 X
Track quality 100.0 %
Test CRC 734B2D89
Copy CRC 734B2D89
Accurately ripped (confidence 8) [AAEBD2E0] (AR v2)
Copy OK

Track 12

Filename F:\_EAC\Charlie Parker Records - The Complete Collection, Vol 23 (2012) [FLAC]\12 - Scrapple From The Apple.wav

Peak level 70.4 %
Extraction speed 8.0 X
Track quality 100.0 %
Test CRC 6407A679
Copy CRC 6407A679
Accurately ripped (confidence 8) [6CF7C252] (AR v2)
Copy OK

Track 13

Filename F:\_EAC\Charlie Parker Records - The Complete Collection, Vol 23 (2012) [FLAC]\13 - 52nd Street Theme.wav

Peak level 83.6 %
Extraction speed 8.5 X
Track quality 100.0 %
Test CRC 17A95B86
Copy CRC 17A95B86
Accurately ripped (confidence 8) [BEE63DED] (AR v2)
Copy OK


All tracks accurately ripped

No errors occurred

End of status report

–– CUETools DB Plugin V2.1.6

[CTDB TOCID: cbG_Z7vllIS1UPlNm..jaSt6DUU-] found
Submit result: cbG_Z7vllIS1UPlNm..jaSt6DUU- has been confirmed
Track | CTDB Status
1 | (10/11) Accurately ripped
2 | (11/11) Accurately ripped
3 | (11/11) Accurately ripped
4 | (11/11) Accurately ripped
5 | (11/11) Accurately ripped
6 | (11/11) Accurately ripped
7 | (11/11) Accurately ripped
8 | (11/11) Accurately ripped
9 | (11/11) Accurately ripped
10 | (11/11) Accurately ripped
11 | (11/11) Accurately ripped
12 | (11/11) Accurately ripped
13 | (11/11) Accurately ripped


==== Log checksum 1F2D78A66048714A6C2A5BA512F7B41B792DF006CA5137A6EC46CACDE7107040 ====


Charlie Parker Records: The Complete Collection, Vol. 23 - Charlie Parker - Birdology (2012 CP Records 233193/23 rec 1949}

Charlie Parker Records: The Complete Collection, Vol. 23 - Charlie Parker - Birdology (2012 CP Records 233193/23 rec 1949}

Charlie Parker Records: The Complete Collection, Vol. 23 - Charlie Parker - Birdology (2012 CP Records 233193/23 rec 1949}


see more Charlie Parker Records, The Complete Collection…


===