Subcategories
Tags
Language
Tags

Chet Baker - The Improviser (1983) {Cadence CJR 1019 rel 1995}

Posted By: ruskaval
Chet Baker - The Improviser (1983) {Cadence CJR 1019 rel 1995}

Chet Baker - The Improviser (1983) {Cadence CJR 1019 rel 1995}
XLD rip (secure mode) | FLAC (tracks)+CUE+LOG -> 299 Mb | MP3 @320 -> 124 Mb
Full Artwork @ 300 dpi (jpg) -> 12 Mb | 5% repair rar
© 1983, 1995 Cadence Jazz Records | CJR 1019
Jazz / Cool / West Coast Jazz / Trumpet

Baker recorded this Cadence LP in Norway, backed by a pair of fine Norweigan trios that in both cases include pianist Per Husby. In addition to Sam Rivers's "Beatrice" (a song that the trumpeter recorded numerous times) and the standard "Polka Dots and Moonbeams," this fine set includes interpretations of two Hal Galper songs ("Margarine" and "Night Bird") and Tadd Dameron's lesser-known "Gnid." Although a little loose in spots, this is an excellent date by the colorful trumpeter.

Personnel
Chet Baker – trumpet
Per Husby – piano
Bjørn Kjellemyr, Terje Venaas – bass
Ole Jacob Hansen, Espen Rud – drums

Recorded in Oslo, Norway at the Hot House on August 15, 1983 and at Club 7 on August 30, 1983

Track Listing
01. Margarine
02. Polka Dots and Moonbeams
03. Beatrice
04. Gnid
05. Night Bird

X Lossless Decoder version 20181019 (151.1)

XLD extraction logfile from 2019-09-01 12:19:27 -0700

Chet Baker / The Improviser

Used drive : HL-DT-ST DVDRAM GP65NB60 (revision PF00)
Media type : Pressed CD

Ripper mode : XLD Secure Ripper
Disable audio cache : OK for the drive with a cache less than 1375KiB
Make use of C2 pointers : NO
Read offset correction : 6
Max retry count : 100
Gap status : Analyzed, Appended (except HTOA)

TOC of the extracted CD
Track | Start | Length | Start sector | End sector
––––––––––––––––––––––––––––-
1 | 00:00:00 | 09:37:05 | 0 | 43279
2 | 09:37:05 | 08:14:49 | 43280 | 80378
3 | 17:51:54 | 09:04:11 | 80379 | 121189
4 | 26:55:65 | 10:26:12 | 121190 | 168151
5 | 37:22:02 | 13:26:10 | 168152 | 228611

AccurateRip Summary (DiscID: 0009ca4d-002e27fa-3d0be805)
Track 01 : OK (v2, confidence 1/1)
Track 02 : OK (v2, confidence 1/1)
Track 03 : OK (v2, confidence 1/1)
Track 04 : OK (v2, confidence 1/1)
Track 05 : OK (v2, confidence 1/1)
->All tracks accurately ripped.

All Tracks
Album gain : -1.95 dB
Peak : 0.809235
Statistics
Read error : 0
Jitter error (maybe fixed) : 0
Retry sector count : 19
Damaged sector count : 0

Track 01
Filename : /Volumes/Hollywood and Vine/Rips/Chet Baker - The Improviser (1984) [FLAC]/01 Margarine.flac
Pre-gap length : 00:02:00

Track gain : -2.45 dB
Peak : 0.809235
CRC32 hash (test run) : D4380D55
CRC32 hash : D4380D55
CRC32 hash (skip zero) : 2B8AE275
AccurateRip v1 signature : 3F1A0398
AccurateRip v2 signature : 3760CE39
->Accurately ripped (v2, confidence 1/1)
Statistics
Read error : 0
Jitter error (maybe fixed) : 0
Retry sector count : 0
Damaged sector count : 0

Track 02
Filename : /Volumes/Hollywood and Vine/Rips/Chet Baker - The Improviser (1984) [FLAC]/02 Polka Dots and Moonbeams.flac
Pre-gap length : 00:01:60

Track gain : -2.06 dB
Peak : 0.735107
CRC32 hash (test run) : 9F7DDD73
CRC32 hash : 9F7DDD73
CRC32 hash (skip zero) : A02AE7A4
AccurateRip v1 signature : FD8AC8C3
AccurateRip v2 signature : 4C637ACD
->Accurately ripped (v2, confidence 1/1)
Statistics
Read error : 0
Jitter error (maybe fixed) : 0
Retry sector count : 0
Damaged sector count : 0

Track 03
Filename : /Volumes/Hollywood and Vine/Rips/Chet Baker - The Improviser (1984) [FLAC]/03 Beatrice.flac
Pre-gap length : 00:01:52

Track gain : -3.01 dB
Peak : 0.780304
CRC32 hash (test run) : 5198D48A
CRC32 hash : 5198D48A
CRC32 hash (skip zero) : 96FCA62E
AccurateRip v1 signature : B761DE39
AccurateRip v2 signature : F7DE0479
->Accurately ripped (v2, confidence 1/1)
Statistics
Read error : 0
Jitter error (maybe fixed) : 0
Retry sector count : 0
Damaged sector count : 0

Track 04
Filename : /Volumes/Hollywood and Vine/Rips/Chet Baker - The Improviser (1984) [FLAC]/04 Gnid.flac
Pre-gap length : 00:04:55

Track gain : -0.97 dB
Peak : 0.727173
CRC32 hash (test run) : A7973D4F
CRC32 hash : A7973D4F
CRC32 hash (skip zero) : 75A23E69
AccurateRip v1 signature : 42C446B1
AccurateRip v2 signature : C5841897
->Accurately ripped (v2, confidence 1/1)
Statistics
Read error : 0
Jitter error (maybe fixed) : 0
Retry sector count : 0
Damaged sector count : 0

Track 05
Filename : /Volumes/Hollywood and Vine/Rips/Chet Baker - The Improviser (1984) [FLAC]/05 Night Bird.flac

Track gain : -1.22 dB
Peak : 0.773499
CRC32 hash (test run) : 7EFDA067
CRC32 hash : 7EFDA067
CRC32 hash (skip zero) : 019284A4
AccurateRip v1 signature : 23991BD0
AccurateRip v2 signature : 54EEF188
->Accurately ripped (v2, confidence 1/1)
Statistics
Read error : 0
Jitter error (maybe fixed) : 0
Retry sector count : 19
Damaged sector count : 0

No errors occurred

End of status report

––-BEGIN XLD SIGNATURE––-
NuNJSmLgw2GtebPGHzAURO2X3IPPNk_gR0u.7P5plRFB6g5qw306cfivZ4faKXmFuBY8ng5tHodUw8ynV_Px79aN9fpcRJQ0eOSNHlO
––-END XLD SIGNATURE––-


Chet Baker - The Improviser (1983) {Cadence CJR 1019 rel 1995}

Chet Baker - The Improviser (1983) {Cadence CJR 1019 rel 1995}


see more Chet Baker…


===