Subcategories

Chick Corea Elektric Band - Beneath The Mask (1991)

Posted By: KGmB
Chick Corea Elektric Band - Beneath The Mask (1991)

Chick Corea Elektric Band - Beneath The Mask (1991)
EAC Rip | FLAC, Image + CUE, LOG | 388 MB | MP3 CBR 320 Kbps | 140 MB | Scans | 14 MB
Jazz, Fusion | Label: Lic. Rus | RAR 3% Rec. | DF.com, RS.com

For their final record together, the Chick Corea Elektric Band returned to the funky backbeat style that dominated their album Light Years in 1987. Beneath The Mask, however, portrays a much tighter, more seasoned ensemble than their previous efforts.
This is a band that could only have grown out of years on the road together, performing extremely complex music on stage, and then capturing that power in the studio. The group's sound had evolved, too, from heavily synthesized effects in the mid '80s to a more natural vibe on Mask, with more acoustic instruments and Corea's more delicate synth tones.

Tracklist:

01. Beneath the mask
02. Little things that count
03. One of us is over 40.
04. A wave goodbye
05. Lifescape
06. Jammin E. Cricket
07. Charged particles
08. Free step
09. 99 flavors
10. Illusions

Musicians:

Chick Corea, keyboards
Eric Marienthal, soprano saxophone
Frank Gambale, guitar
John Patitucci, bass
Dave Weckl, drums

Produced by Chick Corea

Exact Audio Copy V0.99 prebeta 4 from 23. January 2008

EAC extraction logfile from 14. June 2009, 1:15

Chick Corea Elektric Band / Beneath The Mask

Used drive : HL-DT-STRW/DVD GCC-4480B Adapter: 1 ID: 0

Read mode : Secure
Utilize accurate stream : Yes
Defeat audio cache : Yes
Make use of C2 pointers : No

Read offset correction : 48
Overread into Lead-In and Lead-Out : No
Fill up missing offset samples with silence : Yes
Delete leading and trailing silent blocks : No
Null samples used in CRC calculations : No
Used interface : Installed external ASPI interface

Used output format : User Defined Encoder
Selected bitrate : 1024 kBit/s
Quality : High
Add ID3 tag : Yes
Command line compressor : C:\Program Files\Exact Audio Copy\FLAC\FLAC.EXE
Additional command line options : -8 -V -T "ARTIST=%a" -T "TITLE=%t" -T "ALBUM=%g" -T "DATE=%y" -T "TRACKNUMBER=%n" -T "GENRE=%m" -T "COMMENT=%e" %s

TOC of the extracted CD

Track | Start | Length | Start sector | End sector
––––––––––––––––––––––––––––-
1 | 0:00.00 | 3:33.65 | 0 | 16039
2 | 3:33.65 | 3:50.50 | 16040 | 33339
3 | 7:24.40 | 4:57.65 | 33340 | 55679
4 | 12:22.30 | 4:46.50 | 55680 | 77179
5 | 17:09.05 | 5:12.42 | 77180 | 100621
6 | 22:21.47 | 6:54.10 | 100622 | 131681
7 | 29:15.57 | 5:21.35 | 131682 | 155791
8 | 34:37.17 | 7:47.20 | 155792 | 190836
9 | 42:24.37 | 3:56.55 | 190837 | 208591
10 | 46:21.17 | 9:46.45 | 208592 | 252586

Range status and errors

Selected range

Filename D:\Uploads\Chick Corea Elektric Band - Beneath The Mask [Flac]\Chick Corea Elektric Band - Beneath The Mask.wav

Peak level 100.0 %
Range quality 99.9 %
Copy CRC 900C65AA
Copy OK

No errors occurred

End of status report

Download Depositfiles:

in Lossless
part1 | part2 | part3 | part4

MP3 lossy files
part1 | part2

Artwork
Covers

Download Rapidshare:

in Lossless
part1 | part2 | part3 | part4

Don't post mirrors, please

My Blog