Subcategories

Chick Corea - Three Quartets (1981)

Posted By: KGmB
Chick Corea - Three Quartets (1981)

Chick Corea - Three Quartets (1981)
EAC Rip | FLAC, Image + CUE, LOG | 386 MB | MP3 CBR 320 Kbps | 147 MB | Scans | 10.7 MB
Jazz | Label: Strees Rec. | Catalog Number: FJ 0001041 | RAR 3% Rec. | RS.com, DF.com

This encounter between Chick Corea (sticking to acoustic piano), tenor saxophonist Michael Brecker, bassist Eddie Gomez, and drummer Steve Gadd lives up to one's expectations. The original program featured three lengthy "quartet" pieces, including sections dedicated to Duke Ellington and John Coltrane. The CD reissue adds four briefer pieces that were previously unissued, including an unaccompanied Brecker workout on "Confirmation" that would be perfect for "blindfold" tests. This blowing date is highly recommended for all true jazz fans. ~ Scott Yanow, All Music Guide

Tracklist:

1. Quartet No. 1 10:16
2. Quartet No. 3/Quartet No. 2 9:41
3. Pt. 1 (Dedicated to Duke Ellington) 7:09
4. Pt. 2 (Dedicated to John Coltrane) 12:01
5. Folk Song 5:51
6. Hairy Canary 3:43
7. Slippery When Wet 6:02
8. Confirmation 6:18

All music composed and arranged by Chick Corea, except "Confirmation", written by Charlie Parker.
The Japanese release offers the same four bonus tracks that the American release does: "Folk Song," "Hairy Canary," "Slippery When Wet," and "Confirmation."

Musicians:

Chick Corea - Piano
Steve Gadd - Drums
Michael Brecker - Saxophone
Eddie Gomez - Bass

Produced by Chick Corea.

Exact Audio Copy V0.99 prebeta 4 from 23. January 2008

EAC extraction logfile from 9. June 2009, 0:25

Chick Corea / Three Quartets

Used drive : HL-DT-STRW/DVD GCC-4480B Adapter: 1 ID: 0

Read mode : Secure
Utilize accurate stream : Yes
Defeat audio cache : Yes
Make use of C2 pointers : No

Read offset correction : 48
Overread into Lead-In and Lead-Out : No
Fill up missing offset samples with silence : Yes
Delete leading and trailing silent blocks : No
Null samples used in CRC calculations : Yes
Used interface : Installed external ASPI interface

Used output format : User Defined Encoder
Selected bitrate : 896 kBit/s
Quality : High
Add ID3 tag : No
Command line compressor : C:\Program Files\Exact Audio Copy\FLAC\FLAC.EXE
Additional command line options : -8 -V -T "ARTIST=%a" -T "TITLE=%t" -T "ALBUM=%g" -T "DATE=%y" -T "TRACKNUMBER=%n" -T "GENRE=%m" -T "COMMENT=%e" %s
Use compression offset : 0


TOC of the extracted CD

Track | Start | Length | Start sector | End sector
––––––––––––––––––––––––––––-
1 | 0:00.00 | 10:15.25 | 0 | 46149
2 | 10:15.25 | 9:41.55 | 46150 | 89779
3 | 19:57.05 | 7:09.30 | 89780 | 121984
4 | 27:06.35 | 12:01.47 | 121985 | 176106
5 | 39:08.07 | 5:51.45 | 176107 | 202476
6 | 44:59.52 | 3:43.53 | 202477 | 219254
7 | 48:43.30 | 6:02.25 | 219255 | 246429
8 | 54:45.55 | 6:16.42 | 246430 | 274671


Range status and errors

Selected range

Filename D:\Uploads\Chick Corea - Three Quartets (1981)\Chick Corea - Three Quartets.wav

Peak level 100.0 %
Range quality 100.0 %
Test CRC C42E30B7
Copy CRC C42E30B7
Copy OK

No errors occurred

End of status report

Download Rapidshare:

Lossless:
part1 | part2 | part3 | part4

Download Depositfiles:

Lossless:
part1 | part2 | part3 | part4

MP3 lossy:
part1 | part2

Artwork:
Covers

Don't post mirrors, please

My Blog