Subcategories
Tags
Language
Tags

Chris Stapleton - Traveller (2015)

Posted By: aasana
Chris Stapleton - Traveller (2015)

Chris Stapleton - Traveller (2015)
EAC Rip | FLAC (tracks+.cue+.log) | 1:03:08 | 360 MB
Country, rock, soul | Label: Mercury Nashville

Traveller is the debut studio album by American singer-songwriter Chris Stapleton. The album was produced by Dave Cobb and Stapleton, and was released on May 5, 2015, through Mercury Nashville.

Described by music publications as an old-school country, Southern rock record, Traveller received critical acclaim and earned Stapleton several awards. It was named Album of the Year at the 2015 Country Music Association Awards. Furthermore, it received a nomination at the 58th Grammy Awards for Album of the Year and a win for Best Country Album. The song "Traveller" also won Best Country Solo Performance. At the 2016 Academy of Country Music Awards it won Album of the Year, with the song "Nobody to Blame" also winning Song of the Year. It won the Billboard Music Award for Top Country Album in 2016 and 2017.

Traveller reached number one on the US Billboard 200 chart after a duet performance by Stapleton and Justin Timberlake at the 2015 Country Music Association Awards. The album has been certified triple platinum by the Recording Industry Association of America (RIAA) and has sold over 2.3 million copies in the United States by June 2018. It generated three singles: "Traveller", "Nobody to Blame", and "Parachute". "Nobody to Blame" reached the top 10 on the Country Airplay chart. The album track "Fire Away" was accompanied by a music video.

Tracklist:
01. Chris Stapleton - Traveller
02. Chris Stapleton - Fire Away
03. Chris Stapleton - Tennessee Whiskey
04. Chris Stapleton - Parachute
05. Chris Stapleton - Whiskey And You
06. Chris Stapleton - Nobody To Blame
07. Chris Stapleton - More Of You
08. Chris Stapleton - When The Stars Come Out
09. Chris Stapleton - Daddy Doesn't Pray Anymore
10. Chris Stapleton - Might As Well Get Stoned
11. Chris Stapleton - Was It 26
12. Chris Stapleton - The Devil Named Music
13. Chris Stapleton - Outlaw State Of Mind
14. Chris Stapleton - Sometimes I Cry

Exact Audio Copy V1.0 beta 6 from 9. April 2015

EAC extraction logfile from 25. May 2015, 13:28

Chris Stapleton / Traveller

Used drive : ASUS DRW-24B3LT Adapter: 1 ID: 0

Read mode : Secure
Utilize accurate stream : Yes
Defeat audio cache : Yes
Make use of C2 pointers : No

Read offset correction : 6
Overread into Lead-In and Lead-Out : No
Fill up missing offset samples with silence : Yes
Delete leading and trailing silent blocks : No
Null samples used in CRC calculations : Yes
Used interface : Native Win32 interface for Win NT & 2000
Gap handling : Appended to previous track

Used output format : User Defined Encoder
Selected bitrate : 1024 kBit/s
Quality : High
Add ID3 tag : No
Command line compressor : C:\flac-1.3.1-win\win64\flac.exe
Additional command line options : -8 -V -T "ARTIST=%artist%" -T "TITLE=%title%" -T "ALBUM=%albumtitle%" -T "DATE=%year%" -T "TRACKNUMBER=%tracknr%" -T "GENRE=%genre%" -T "PERFORMER=%albuminterpret%" -T "COMPOSER=%composer%" %haslyrics%–tag-from-file=LYRICS="%lyricsfile%"%haslyrics% -T "ALBUMARTIST=%albumartist%" -T "DISCNUMBER=%cdnumber%" -T "TOTALDISCS=%totalcds%" -T "TOTALTRACKS=%numtracks%" -T "COMMENT=%comment%" %source% -o %dest%


TOC of the extracted CD

Track | Start | Length | Start sector | End sector
––––––––––––––––––––––––––––-
1 | 0:00.00 | 3:42.31 | 0 | 16680
2 | 3:42.31 | 4:04.25 | 16681 | 35005
3 | 7:46.56 | 4:53.22 | 35006 | 57002
4 | 12:40.03 | 4:13.15 | 57003 | 75992
5 | 16:53.18 | 3:56.25 | 75993 | 93717
6 | 20:49.43 | 4:04.11 | 93718 | 112028
7 | 24:53.54 | 4:37.42 | 112029 | 132845
8 | 29:31.21 | 4:16.51 | 132846 | 152096
9 | 33:47.72 | 4:09.53 | 152097 | 170824
10 | 37:57.50 | 4:37.05 | 170825 | 191604
11 | 42:34.55 | 4:49.07 | 191605 | 213286
12 | 47:23.62 | 6:07.37 | 213287 | 240848
13 | 53:31.24 | 5:37.21 | 240849 | 266144
14 | 59:08.45 | 4:00.22 | 266145 | 284166


Track 1

Filename C:\EAC rips\Chris Stapleton - Traveller [FLAC]\01 - Traveller.wav

Pre-gap length 0:00:02.00

Peak level 97.1 %
Extraction speed 1.8 X
Track quality 99.9 %
Test CRC 7C4B43E5
Copy CRC 7C4B43E5
Track not present in AccurateRip database
Copy OK

Track 2

Filename C:\EAC rips\Chris Stapleton - Traveller [FLAC]\02 - Fire Away.wav

Peak level 97.9 %
Extraction speed 2.0 X
Track quality 99.9 %
Test CRC E3AD2703
Copy CRC E3AD2703
Track not present in AccurateRip database
Copy OK

Track 3

Filename C:\EAC rips\Chris Stapleton - Traveller [FLAC]\03 - Tennessee Whiskey.wav

Peak level 97.0 %
Extraction speed 2.5 X
Track quality 100.0 %
Test CRC 0DC701E0
Copy CRC 0DC701E0
Track not present in AccurateRip database
Copy OK

Track 4

Filename C:\EAC rips\Chris Stapleton - Traveller [FLAC]\04 - Parachute.wav

Peak level 98.4 %
Extraction speed 2.6 X
Track quality 100.0 %
Test CRC 0CB1C5D5
Copy CRC 0CB1C5D5
Track not present in AccurateRip database
Copy OK

Track 5

Filename C:\EAC rips\Chris Stapleton - Traveller [FLAC]\05 - Whiskey And You.wav

Peak level 96.0 %
Extraction speed 2.8 X
Track quality 100.0 %
Test CRC 82C64309
Copy CRC 82C64309
Track not present in AccurateRip database
Copy OK

Track 6

Filename C:\EAC rips\Chris Stapleton - Traveller [FLAC]\06 - Nobody To Blame.wav

Peak level 97.6 %
Extraction speed 3.0 X
Track quality 100.0 %
Test CRC CB1CCFCD
Copy CRC CB1CCFCD
Track not present in AccurateRip database
Copy OK

Track 7

Filename C:\EAC rips\Chris Stapleton - Traveller [FLAC]\07 - More Of You.wav

Peak level 92.3 %
Extraction speed 2.9 X
Track quality 99.9 %
Test CRC FE642DBB
Copy CRC FE642DBB
Track not present in AccurateRip database
Copy OK

Track 8

Filename C:\EAC rips\Chris Stapleton - Traveller [FLAC]\08 - When The Stars Come Out.wav

Peak level 96.8 %
Extraction speed 3.3 X
Track quality 100.0 %
Test CRC C41B6558
Copy CRC C41B6558
Track not present in AccurateRip database
Copy OK

Track 9

Filename C:\EAC rips\Chris Stapleton - Traveller [FLAC]\09 - Daddy Doesn't Pray Anymore.wav

Peak level 85.6 %
Extraction speed 3.4 X
Track quality 100.0 %
Test CRC B01CC286
Copy CRC B01CC286
Track not present in AccurateRip database
Copy OK

Track 10

Filename C:\EAC rips\Chris Stapleton - Traveller [FLAC]\10 - Might As Well Get Stoned.wav

Peak level 97.1 %
Extraction speed 3.6 X
Track quality 100.0 %
Test CRC 81300667
Copy CRC 81300667
Track not present in AccurateRip database
Copy OK

Track 11

Filename C:\EAC rips\Chris Stapleton - Traveller [FLAC]\11 - Was It 26.wav

Peak level 97.6 %
Extraction speed 3.7 X
Track quality 100.0 %
Test CRC 2096CF2C
Copy CRC 2096CF2C
Track not present in AccurateRip database
Copy OK

Track 12

Filename C:\EAC rips\Chris Stapleton - Traveller [FLAC]\12 - The Devil Named Music.wav

Peak level 96.9 %
Extraction speed 3.6 X
Track quality 99.9 %
Test CRC 75702E4D
Copy CRC 75702E4D
Track not present in AccurateRip database
Copy OK

Track 13

Filename C:\EAC rips\Chris Stapleton - Traveller [FLAC]\13 - Outlaw State Of Mind.wav

Peak level 97.0 %
Extraction speed 3.7 X
Track quality 99.9 %
Test CRC 99B0E1F5
Copy CRC 99B0E1F5
Track not present in AccurateRip database
Copy OK

Track 14

Filename C:\EAC rips\Chris Stapleton - Traveller [FLAC]\14 - Sometimes I Cry.wav

Pre-gap length 0:00:01.98

Peak level 97.8 %
Extraction speed 4.0 X
Track quality 100.0 %
Test CRC 6DAF3A50
Copy CRC 6DAF3A50
Track not present in AccurateRip database
Copy OK


None of the tracks are present in the AccurateRip database

No errors occurred

End of status report

==== Log checksum C1AB2162FA52A9051C1C7194F4822FCECE6A59523AEC88CEF5737A478F2754A6 ====