Tags
Language
Tags

Christian Fitness - I Am Scared Of Everything That Isn't Me (2014) {Prescriptions PRESHBCD04}

Posted By: ruskaval
Christian Fitness - I Am Scared Of Everything That Isn't Me (2014) {Prescriptions PRESHBCD04}

Christian Fitness - I Am Scared Of Everything That Isn't Me (2014) {Prescriptions PRESHBCD04}
EAC rip (secure mode) | FLAC (tracks)+CUE+LOG -> 210 Mb | MP3 @320 -> 82 Mb
Full Artwork @ 300 dpi (png) -> 45 Mb | 5% repair rar
© 2014 Andrew Falkous & Prescriptions | PRESHBCD04
Rock / Indie Rock

If you’ve heard of Andy Falkous, you already love this album, and I, in turn, love you.

If you haven’t, Andy Falkous was in Mclusky (now defunct), then Future of the Left (still going). Good old noisy bands with pop sensibilities, with a knack for a hilarious lyrics. Not in the comedy vain of someone like Tenacious D or Weird Al Jankovic (sigh), but in a witty, intelligent, or just incredibly random I-can’t-believe-that’s-a-line-in-a-song way.

Anyway, he lost his full time job, and had some quiet time, so he decided to record an album on his own (his wife plays bass on a track, and some guy plays drums on a few to make them sound good). Mostly it’s just him.
Christian Fitness - I Am Scared Of Everything That Isn't Me (2014) {Prescriptions PRESHBCD04}


more INFO

Track LIsting:
01 - Aghast, Anew, Anon
02 - Soft Power Itches
03 - Transitory Breakdown
04 - I Am Scared of Everything That Isn't Me
05 - Disturbing the Ache
06 - Attack of the 50 Foot Side Project
07 - Teeth
08 - Feel Good Hit of the Second Trimester
09 - Carthage Must Be Destroyed
10 - Say Hello to Nobody
11 - Christian Fitness
12 - The Earth Keeps it's Secrets

Exact Audio Copy V1.0 beta 3 from 29. August 2011

EAC extraction logfile from 23. April 2015, 14:30

Christian Fitness / I Am Scared of Everything That Isn't Me

Used drive : TSSTcorpCDDVDW SH-224BB Adapter: 0 ID: 0

Read mode : Secure
Utilize accurate stream : Yes
Defeat audio cache : Yes
Make use of C2 pointers : No

Read offset correction : 6
Overread into Lead-In and Lead-Out : No
Fill up missing offset samples with silence : Yes
Delete leading and trailing silent blocks : No
Null samples used in CRC calculations : Yes
Used interface : Native Win32 interface for Win NT & 2000
Gap handling : Appended to previous track

Used output format : User Defined Encoder
Selected bitrate : 1024 kBit/s
Quality : High
Add ID3 tag : No
Command line compressor : C:\Program Files (x86)\Exact Audio Copy\Flac\flac.exe
Additional command line options : -8 -V -T "ARTIST=%artist%" -T "TITLE=%title%" -T "ALBUM=%albumtitle%" -T "DATE=%year%" -T "TRACKNUMBER=%tracknr%" -T "TOTALTRACKS=%numtracks%" -T "GENRE=%genre%" -T "ALBUMARTIST=%albumartist%" -T "ALBUM ARTIST=%albumartist%" -T "COMMENT=EAC Secure Mode, Test & Copy, AccurateRip, FLAC -8" %source%


TOC of the extracted CD

Track | Start | Length | Start sector | End sector
––––––––––––––––––––––––––––-
1 | 0:00.00 | 3:17.09 | 0 | 14783
2 | 3:17.09 | 2:52.69 | 14784 | 27752
3 | 6:10.03 | 3:21.68 | 27753 | 42895
4 | 9:31.71 | 1:48.45 | 42896 | 51040
5 | 11:20.41 | 4:49.18 | 51041 | 72733
6 | 16:09.59 | 1:44.00 | 72734 | 80533
7 | 17:53.59 | 3:15.33 | 80534 | 95191
8 | 21:09.17 | 2:22.65 | 95192 | 105906
9 | 23:32.07 | 2:39.05 | 105907 | 117836
10 | 26:11.12 | 1:06.01 | 117837 | 122787
11 | 27:17.13 | 2:41.02 | 122788 | 134864
12 | 29:58.15 | 4:15.68 | 134865 | 154057


Track 1

Filename F:\EAC Rips\Christian Fitness - I Am Scared of Everything That Isn't Me (2014) [FLAC]\01 - Aghast, Anew, Anon.wav

Pre-gap length 0:00:02.00

Peak level 99.9 %
Extraction speed 4.4 X
Track quality 100.0 %
Test CRC 7FA93D35
Copy CRC 7FA93D35
Accurately ripped (confidence 1) [7E0BAB5B] (AR v2)
Copy OK

Track 2

Filename F:\EAC Rips\Christian Fitness - I Am Scared of Everything That Isn't Me (2014) [FLAC]\02 - Soft Power Itches.wav

Peak level 99.9 %
Extraction speed 4.8 X
Track quality 100.0 %
Test CRC E458D41E
Copy CRC E458D41E
Accurately ripped (confidence 1) [7C6181D7] (AR v2)
Copy OK

Track 3

Filename F:\EAC Rips\Christian Fitness - I Am Scared of Everything That Isn't Me (2014) [FLAC]\03 - Transitory Breakdown.wav

Peak level 99.9 %
Extraction speed 5.2 X
Track quality 100.0 %
Test CRC DAF13AA2
Copy CRC DAF13AA2
Accurately ripped (confidence 1) [EEC17263] (AR v2)
Copy OK

Track 4

Filename F:\EAC Rips\Christian Fitness - I Am Scared of Everything That Isn't Me (2014) [FLAC]\04 - I Am Scared of Everything That Isn't Me.wav

Peak level 99.9 %
Extraction speed 4.7 X
Track quality 100.0 %
Test CRC ABF89054
Copy CRC ABF89054
Accurately ripped (confidence 1) [7DCFDF53] (AR v2)
Copy OK

Track 5

Filename F:\EAC Rips\Christian Fitness - I Am Scared of Everything That Isn't Me (2014) [FLAC]\05 - Disturbing the Ache.wav

Peak level 99.9 %
Extraction speed 5.7 X
Track quality 100.0 %
Test CRC 4F468C35
Copy CRC 4F468C35
Accurately ripped (confidence 1) [964C30F1] (AR v2)
Copy OK

Track 6

Filename F:\EAC Rips\Christian Fitness - I Am Scared of Everything That Isn't Me (2014) [FLAC]\06 - Attack of the 50 Foot Side Project.wav

Peak level 99.9 %
Extraction speed 4.9 X
Track quality 100.0 %
Test CRC D261DFCF
Copy CRC D261DFCF
Accurately ripped (confidence 1) [BC1B070C] (AR v2)
Copy OK

Track 7

Filename F:\EAC Rips\Christian Fitness - I Am Scared of Everything That Isn't Me (2014) [FLAC]\07 - Teeth.wav

Peak level 99.9 %
Extraction speed 5.9 X
Track quality 100.0 %
Test CRC 3BC19E19
Copy CRC 3BC19E19
Accurately ripped (confidence 1) [10BBEE1A] (AR v2)
Copy OK

Track 8

Filename F:\EAC Rips\Christian Fitness - I Am Scared of Everything That Isn't Me (2014) [FLAC]\08 - Feel Good Hit of the Second Trimester.wav

Peak level 99.9 %
Extraction speed 5.8 X
Track quality 100.0 %
Test CRC C512ECBE
Copy CRC C512ECBE
Accurately ripped (confidence 1) [00268C4A] (AR v2)
Copy OK

Track 9

Filename F:\EAC Rips\Christian Fitness - I Am Scared of Everything That Isn't Me (2014) [FLAC]\09 - Carthage Must Be Destroyed.wav

Peak level 99.9 %
Extraction speed 6.2 X
Track quality 100.0 %
Test CRC C3ECA114
Copy CRC C3ECA114
Accurately ripped (confidence 1) [5E8F1FB6] (AR v2)
Copy OK

Track 10

Filename F:\EAC Rips\Christian Fitness - I Am Scared of Everything That Isn't Me (2014) [FLAC]\10 - Say Hello to Nobody.wav

Peak level 99.9 %
Extraction speed 5.0 X
Track quality 100.0 %
Test CRC EC1FE903
Copy CRC EC1FE903
Accurately ripped (confidence 1) [D4A9B571] (AR v2)
Copy OK

Track 11

Filename F:\EAC Rips\Christian Fitness - I Am Scared of Everything That Isn't Me (2014) [FLAC]\11 - Christian Fitness.wav

Peak level 99.9 %
Extraction speed 4.8 X
Track quality 99.9 %
Test CRC 187E971D
Copy CRC 187E971D
Accurately ripped (confidence 1) [AE9A7C94] (AR v2)
Copy OK

Track 12

Filename F:\EAC Rips\Christian Fitness - I Am Scared of Everything That Isn't Me (2014) [FLAC]\12 - The Earth Keeps it's Secrets.wav

Peak level 99.9 %
Extraction speed 7.3 X
Track quality 100.0 %
Test CRC D39F3027
Copy CRC D39F3027
Accurately ripped (confidence 1) [A58DC410] (AR v2)
Copy OK


All tracks accurately ripped

No errors occurred

End of status report

–– CUETools DB Plugin V2.1.3

[CTDB TOCID: yZjcgwgG78vAT_beBIgWmnxn1wI-] found, Submit result: already submitted
[ce26a563] (1/1) Accurately ripped


==== Log checksum 5F748D82B7D376ABBF801BF2A2BBADE50C0251AA32F65B15E7B98CD0816A74CD ====


Christian Fitness - I Am Scared Of Everything That Isn't Me (2014) {Prescriptions PRESHBCD04}

Christian Fitness - I Am Scared Of Everything That Isn't Me (2014) {Prescriptions PRESHBCD04}



===