Tags
Language
Tags

Claudio Arrau - Rarities 1929-1951 (2014) {3CD Set Warner Classics 2564 63942-7}

Posted By: ruskaval
Claudio Arrau - Rarities 1929-1951 (2014) {3CD Set Warner Classics 2564 63942-7}

Claudio Arrau - Rarities 1929-1951 (2014) {3CD Set Warner Classics 2564 63942-7}
EAC rip (secure mode) | FLAC (tracks)+CUE+LOG -> 419 Mb | MP3 @320 -> 410 Mb
Full Artwork @ 300 dpi (png) -> 53 Mb | 5% repair rar
© 1929-51, 2014 Warner Classics | 2564 63942-7
Classical / Piano

The young Claudio Arrau made records in Berlin and London which reveal the lasting qualities of his pianism: a sovereign technical command, a deep patience and a gravitation towards weighty matters, enriched by his study with ‘philosopher pianists’ such as Busoni and Martin Krause, that resulted in these profound and impassioned recordings of Beethoven, Brahms and Chopin, most of which have not previously appeared on CD, and all of them newly remastered for this tribute to a master pianist of the 20th century.

warnerclassics.com INFO
musicweb-international.com INFO


Performers

Claudio Arrau - piano

Philharmonia Orchestra, Basil Cameron (conductor)

Track Listing
CD1

01 - Brahms - Piano Concerto No. 1 in D minor, Op.15 - I. Maestoso - Poco piu moderato
02 - Brahms - Piano Concerto No. 1 in D minor, Op.15 - II. Adagio
03 - Brahms - Piano Concerto No. 1 in D minor, Op.15 - III. Rondo. Allegro ma non troppo
04 - Mozart - Piano Sonata No. 17 in B flat K570 - I. Allegro
05 - Mozart - Piano Sonata No. 17 in B flat K570 - II. Adagio
06 - Mozart - Piano Sonata No. 17 in B flat K570 - III. Allegretto

CD2
01 - Beethoven - Piano Sonata No. 7 in D, Op.10 No.3 - I. Presto
02 - Beethoven - Piano Sonata No. 7 in D, Op.10 No.3 - II. Largo e mesto
03 - Beethoven - Piano Sonata No. 7 in D, Op.10 No.3 - III. Menuetto. Allegro
04 - Beethoven - Piano Sonata No. 7 in D, Op.10 No.3 - IV. Rondo. Allegro
05 - Beethoven - Piano Sonata No. 7 in D, Op.10 No.3 - III. Menuetto. Allegro (Alternative take)
06 - Beethoven - Piano Sonata No. 7 in D, Op.10 No.3 - IV. Rondo. Allegro (Alternative take)
07 - Beethoven - Piano Sonata No. 14 in C sharp minor, Op.27 No.2 'Moonlight' - I. Adagio sostenuto
08 - Beethoven - Piano Sonata No. 14 in C sharp minor, Op.27 No.2 'Moonlight' - II. Allegretto
09 - Beethoven - Piano Sonata No. 14 in C sharp minor, Op.27 No.2 'Moonlight' - III. Presto agitato
10 - Beethoven - Piano Sonata No. 18 in E flat, Op.31 No.3 - I. Allegro
11 - Beethoven - Piano Sonata No. 18 in E flat, Op.31 No.3 - II. Scherzo. Allegretto vivace
12 - Beethoven - Piano Sonata No. 18 in E flat, Op.31 No.3 - III. Menuetto. Moderato e grazioso
13 - Beethoven - Piano Sonata No. 18 in E flat, Op.31 No.3 - IV. Presto con fuoco

CD3
01 - Chopin - Scherzo No. 4 in E, Op.54
02 - Liszt - Meine Freuden
03 - Debussy - La Puerta del Vino
04 - Granados - Quejas, o la maja y el ruisenor
05 - Chopin - Ballade No. 3 in A flat, Op.47
06 - Chopin - Scherzo No. 3 in C sharp minor, Op.39
07 - Chopin - Etude in F minor, Op.25 No.2
08 - Chopin - Etude in C sharp minor, Op.10 No.4
09 - Prelude in F, Op.28 No.23
10 - Etude in A flat, Op.25 No.1
11 - Waltz No. 4 in F, Op.34 No.3
12 - Schubert - Standchen D889
13 - Liszt - Valse melancolique
14 - Liszt - Les Jeux d'eau a la Villa d'Este

Exact Audio Copy V1.1 from 23. June 2015

EAC extraction logfile from 20. October 2015, 0:13

Claudio Arrau / Rarities 1929-1951

Used drive : ASUS DRW-24B1ST i Adapter: 1 ID: 0

Read mode : Secure
Utilize accurate stream : Yes
Defeat audio cache : Yes
Make use of C2 pointers : No

Read offset correction : 6
Overread into Lead-In and Lead-Out : No
Fill up missing offset samples with silence : Yes
Delete leading and trailing silent blocks : No
Null samples used in CRC calculations : Yes
Used interface : Native Win32 interface for Win NT & 2000
Gap handling : Appended to previous track

Used output format : User Defined Encoder
Selected bitrate : 128 kBit/s
Quality : High
Add ID3 tag : No
Command line compressor : C:\Program Files (x86)\Exact Audio Copy\Flac\flac.exe
Additional command line options : -8 -V -T "ARTIST=%artist%" -T "TITLE=%title%" -T "ALBUM=%albumtitle%" -T "DATE=%year%" -T "TRACKNUMBER=%tracknr%" -T "TOTALTRACKS=%numtracks%" -T "GENRE=%genre%" -T "ALBUMARTIST=%albumartist%" -T "ALBUM ARTIST=%albumartist%" -T "COMMENT=EAC Secure Mode, Test & Copy, AccurateRip, FLAC -8" %source%


TOC of the extracted CD

Track | Start | Length | Start sector | End sector
––––––––––––––––––––––––––––-
1 | 0:00.00 | 21:09.63 | 0 | 95237
2 | 21:09.63 | 13:53.63 | 95238 | 157775
3 | 35:03.51 | 11:57.17 | 157776 | 211567
4 | 47:00.68 | 8:18.23 | 211568 | 248940
5 | 55:19.16 | 10:15.71 | 248941 | 295136
6 | 65:35.12 | 3:32.41 | 295137 | 311077


Track 1

Filename D:\_Post\Arrau\CD1\01 - Brahms - Piano Concerto No. 1 in D minor, Op.15 - I. Maestoso - Poco piu moderato.wav

Pre-gap length 0:00:02.00

Peak level 99.8 %
Extraction speed 7.1 X
Track quality 100.0 %
Test CRC 58B9DCC6
Copy CRC 58B9DCC6
Accurately ripped (confidence 2) [A79AE031] (AR v2)
Copy OK

Track 2

Filename D:\_Post\Arrau\CD1\02 - Brahms - Piano Concerto No. 1 in D minor, Op.15 - II. Adagio.wav

Peak level 79.7 %
Extraction speed 8.9 X
Track quality 100.0 %
Test CRC 411AD213
Copy CRC 411AD213
Accurately ripped (confidence 2) [D03F3166] (AR v2)
Copy OK

Track 3

Filename D:\_Post\Arrau\CD1\03 - Brahms - Piano Concerto No. 1 in D minor, Op.15 - III. Rondo. Allegro ma non troppo.wav

Peak level 88.3 %
Extraction speed 9.8 X
Track quality 100.0 %
Test CRC 62A38D77
Copy CRC 62A38D77
Accurately ripped (confidence 2) [A651667E] (AR v2)
Copy OK

Track 4

Filename D:\_Post\Arrau\CD1\04 - Mozart - Piano Sonata No. 17 in B flat K570 - I. Allegro.wav

Peak level 89.0 %
Extraction speed 9.2 X
Track quality 99.9 %
Test CRC FFC4B909
Copy CRC FFC4B909
Accurately ripped (confidence 2) [B46EBEFA] (AR v2)
Copy OK

Track 5

Filename D:\_Post\Arrau\CD1\05 - Mozart - Piano Sonata No. 17 in B flat K570 - II. Adagio.wav

Peak level 82.1 %
Extraction speed 10.6 X
Track quality 100.0 %
Test CRC 498E96DA
Copy CRC 498E96DA
Accurately ripped (confidence 2) [FF41372C] (AR v2)
Copy OK

Track 6

Filename D:\_Post\Arrau\CD1\06 - Mozart - Piano Sonata No. 17 in B flat K570 - III. Allegretto.wav

Peak level 92.3 %
Extraction speed 10.1 X
Track quality 100.0 %
Test CRC 4A90AD3E
Copy CRC 4A90AD3E
Accurately ripped (confidence 2) [964BAC91] (AR v2)
Copy OK


All tracks accurately ripped

No errors occurred

End of status report

–– CUETools DB Plugin V2.1.6

[CTDB TOCID: 7BWeJ6PMv8v58kWDY_9HpBkoohg-] found
Submit result: 7BWeJ6PMv8v58kWDY_9HpBkoohg- has been confirmed
Track | CTDB Status
1 | (1/1) Accurately ripped
2 | (1/1) Accurately ripped
3 | (1/1) Accurately ripped
4 | (1/1) Accurately ripped
5 | (1/1) Accurately ripped
6 | (1/1) Accurately ripped


==== Log checksum 1E07492540C8BDB2318AA16CFEB05949C6721CA87CAF0AA3CFD2C2FB90BB86A5 ====
Exact Audio Copy V1.1 from 23. June 2015

EAC extraction logfile from 20. October 2015, 1:29

Claudio Arrau / Rarities 1929-1951 (CD2)

Used drive : ASUS DRW-24B1ST i Adapter: 1 ID: 0

Read mode : Secure
Utilize accurate stream : Yes
Defeat audio cache : Yes
Make use of C2 pointers : No

Read offset correction : 6
Overread into Lead-In and Lead-Out : No
Fill up missing offset samples with silence : Yes
Delete leading and trailing silent blocks : No
Null samples used in CRC calculations : Yes
Used interface : Native Win32 interface for Win NT & 2000
Gap handling : Appended to previous track

Used output format : User Defined Encoder
Selected bitrate : 128 kBit/s
Quality : High
Add ID3 tag : No
Command line compressor : C:\Program Files (x86)\Exact Audio Copy\Flac\flac.exe
Additional command line options : -8 -V -T "ARTIST=%artist%" -T "TITLE=%title%" -T "ALBUM=%albumtitle%" -T "DATE=%year%" -T "TRACKNUMBER=%tracknr%" -T "TOTALTRACKS=%numtracks%" -T "GENRE=%genre%" -T "ALBUMARTIST=%albumartist%" -T "ALBUM ARTIST=%albumartist%" -T "COMMENT=EAC Secure Mode, Test & Copy, AccurateRip, FLAC -8" %source%


TOC of the extracted CD

Track | Start | Length | Start sector | End sector
––––––––––––––––––––––––––––-
1 | 0:00.00 | 6:35.56 | 0 | 29680
2 | 6:35.56 | 10:49.72 | 29681 | 78427
3 | 17:25.53 | 2:50.20 | 78428 | 91197
4 | 20:15.73 | 3:37.65 | 91198 | 107537
5 | 23:53.63 | 2:48.02 | 107538 | 120139
6 | 26:41.65 | 3:38.73 | 120140 | 136562
7 | 30:20.63 | 6:37.58 | 136563 | 166395
8 | 36:58.46 | 2:19.25 | 166396 | 176845
9 | 39:17.71 | 7:22.70 | 176846 | 210065
10 | 46:40.66 | 8:19.70 | 210066 | 247560
11 | 55:00.61 | 5:14.27 | 247561 | 271137
12 | 60:15.13 | 4:48.69 | 271138 | 292806
13 | 65:04.07 | 4:37.53 | 292807 | 313634


Track 1

Filename D:\_Post\Arrau\CD2\01 - Beethoven - Piano Sonata No. 7 in D, Op.10 No.3 - I. Presto.wav

Pre-gap length 0:00:02.00

Peak level 96.4 %
Extraction speed 1.9 X
Track quality 99.9 %
Test CRC 9381BA20
Copy CRC 9381BA20
Accurately ripped (confidence 2) [3BE83BDE] (AR v2)
Copy OK

Track 2

Filename D:\_Post\Arrau\CD2\02 - Beethoven - Piano Sonata No. 7 in D, Op.10 No.3 - II. Largo e mesto.wav

Peak level 82.4 %
Extraction speed 2.8 X
Track quality 100.0 %
Test CRC 9416002E
Copy CRC 9416002E
Accurately ripped (confidence 2) [FEBFF6C5] (AR v2)
Copy OK

Track 3

Filename D:\_Post\Arrau\CD2\03 - Beethoven - Piano Sonata No. 7 in D, Op.10 No.3 - III. Menuetto. Allegro.wav

Peak level 67.7 %
Extraction speed 2.7 X
Track quality 100.0 %
Test CRC AA645543
Copy CRC AA645543
Accurately ripped (confidence 2) [8AEB6F84] (AR v2)
Copy OK

Track 4

Filename D:\_Post\Arrau\CD2\04 - Beethoven - Piano Sonata No. 7 in D, Op.10 No.3 - IV. Rondo. Allegro.wav

Peak level 82.9 %
Extraction speed 2.9 X
Track quality 100.0 %
Test CRC BBAB94B9
Copy CRC BBAB94B9
Accurately ripped (confidence 2) [1508FC54] (AR v2)
Copy OK

Track 5

Filename D:\_Post\Arrau\CD2\05 - Beethoven - Piano Sonata No. 7 in D, Op.10 No.3 - III. Menuetto. Allegro (Alternative take).wav

Peak level 72.0 %
Extraction speed 2.9 X
Track quality 100.0 %
Test CRC 5DF85425
Copy CRC 5DF85425
Accurately ripped (confidence 2) [5467D500] (AR v2)
Copy OK

Track 6

Filename D:\_Post\Arrau\CD2\06 - Beethoven - Piano Sonata No. 7 in D, Op.10 No.3 - IV. Rondo. Allegro (Alternative take).wav

Peak level 85.2 %
Extraction speed 3.1 X
Track quality 100.0 %
Test CRC FB9451E8
Copy CRC FB9451E8
Accurately ripped (confidence 2) [B9D6B298] (AR v2)
Copy OK

Track 7

Filename D:\_Post\Arrau\CD2\07 - Beethoven - Piano Sonata No. 14 in C sharp minor, Op.27 No.2 'Moonlight' - I. Adagio sostenuto.wav

Peak level 45.9 %
Extraction speed 3.5 X
Track quality 100.0 %
Test CRC 70FEFD39
Copy CRC 70FEFD39
Accurately ripped (confidence 2) [10162AF8] (AR v2)
Copy OK

Track 8

Filename D:\_Post\Arrau\CD2\08 - Beethoven - Piano Sonata No. 14 in C sharp minor, Op.27 No.2 'Moonlight' - II. Allegretto.wav

Peak level 62.4 %
Extraction speed 3.2 X
Track quality 100.0 %
Test CRC B3D933B3
Copy CRC B3D933B3
Accurately ripped (confidence 2) [EA9D04A1] (AR v2)
Copy OK

Track 9

Filename D:\_Post\Arrau\CD2\09 - Beethoven - Piano Sonata No. 14 in C sharp minor, Op.27 No.2 'Moonlight' - III. Presto agitato.wav

Peak level 95.2 %
Extraction speed 3.8 X
Track quality 100.0 %
Test CRC 0F144C1C
Copy CRC 0F144C1C
Accurately ripped (confidence 2) [27EEE918] (AR v2)
Copy OK

Track 10

Filename D:\_Post\Arrau\CD2\10 - Beethoven - Piano Sonata No. 18 in E flat, Op.31 No.3 - I. Allegro.wav

Peak level 69.5 %
Extraction speed 4.1 X
Track quality 100.0 %
Test CRC 265427A5
Copy CRC 265427A5
Accurately ripped (confidence 2) [05F58DCC] (AR v2)
Copy OK

Track 11

Filename D:\_Post\Arrau\CD2\11 - Beethoven - Piano Sonata No. 18 in E flat, Op.31 No.3 - II. Scherzo. Allegretto vivace.wav

Peak level 71.8 %
Extraction speed 3.1 X
Track quality 99.9 %
Test CRC 46771204
Copy CRC 46771204
Accurately ripped (confidence 2) [07388619] (AR v2)
Copy OK

Track 12

Filename D:\_Post\Arrau\CD2\12 - Beethoven - Piano Sonata No. 18 in E flat, Op.31 No.3 - III. Menuetto. Moderato e grazioso.wav

Peak level 58.5 %
Extraction speed 4.1 X
Track quality 100.0 %
Test CRC CCC3B73F
Copy CRC CCC3B73F
Accurately ripped (confidence 2) [582E4F23] (AR v2)
Copy OK

Track 13

Filename D:\_Post\Arrau\CD2\13 - Beethoven - Piano Sonata No. 18 in E flat, Op.31 No.3 - IV. Presto con fuoco.wav

Peak level 61.7 %
Extraction speed 4.2 X
Track quality 100.0 %
Test CRC 2D8450CD
Copy CRC 2D8450CD
Accurately ripped (confidence 2) [045E2643] (AR v2)
Copy OK


All tracks accurately ripped

No errors occurred

End of status report

–– CUETools DB Plugin V2.1.6

[CTDB TOCID: vMGVB83RtpJnW1eNeGVWCbf4hGk-] found
Submit result: vMGVB83RtpJnW1eNeGVWCbf4hGk- has been confirmed
Track | CTDB Status
1 | (1/1) Accurately ripped
2 | (1/1) Accurately ripped
3 | (1/1) Accurately ripped
4 | (1/1) Accurately ripped
5 | (1/1) Accurately ripped
6 | (1/1) Accurately ripped
7 | (1/1) Accurately ripped
8 | (1/1) Accurately ripped
9 | (1/1) Accurately ripped
10 | (1/1) Accurately ripped
11 | (1/1) Accurately ripped
12 | (1/1) Accurately ripped
13 | (1/1) Accurately ripped


==== Log checksum B9DED20AFA3793AA9B047513A3491082A5556812B7F9860A2EB9A168E8BF85CB ====
Exact Audio Copy V1.1 from 23. June 2015

EAC extraction logfile from 20. October 2015, 1:53

Claudio Arrau / Rarities 1929-1951

Used drive : ASUS DRW-24B1ST i Adapter: 1 ID: 0

Read mode : Secure
Utilize accurate stream : Yes
Defeat audio cache : Yes
Make use of C2 pointers : No

Read offset correction : 6
Overread into Lead-In and Lead-Out : No
Fill up missing offset samples with silence : Yes
Delete leading and trailing silent blocks : No
Null samples used in CRC calculations : Yes
Used interface : Native Win32 interface for Win NT & 2000
Gap handling : Appended to previous track

Used output format : User Defined Encoder
Selected bitrate : 128 kBit/s
Quality : High
Add ID3 tag : No
Command line compressor : C:\Program Files (x86)\Exact Audio Copy\Flac\flac.exe
Additional command line options : -8 -V -T "ARTIST=%artist%" -T "TITLE=%title%" -T "ALBUM=%albumtitle%" -T "DATE=%year%" -T "TRACKNUMBER=%tracknr%" -T "TOTALTRACKS=%numtracks%" -T "GENRE=%genre%" -T "ALBUMARTIST=%albumartist%" -T "ALBUM ARTIST=%albumartist%" -T "COMMENT=EAC Secure Mode, Test & Copy, AccurateRip, FLAC -8" %source%


TOC of the extracted CD

Track | Start | Length | Start sector | End sector
––––––––––––––––––––––––––––-
1 | 0:00.00 | 11:35.61 | 0 | 52185
2 | 11:35.61 | 3:59.05 | 52186 | 70115
3 | 15:34.66 | 3:17.72 | 70116 | 84962
4 | 18:52.63 | 6:12.02 | 84963 | 112864
5 | 25:04.65 | 6:51.16 | 112865 | 143705
6 | 31:56.06 | 7:28.59 | 143706 | 177364
7 | 39:24.65 | 1:29.16 | 177365 | 184055
8 | 40:54.06 | 1:57.55 | 184056 | 192885
9 | 42:51.61 | 0:53.32 | 192886 | 196892
10 | 43:45.18 | 2:28.55 | 196893 | 208047
11 | 46:13.73 | 2:15.61 | 208048 | 218233
12 | 48:29.59 | 2:52.70 | 218234 | 231203
13 | 51:22.54 | 5:39.04 | 231204 | 256632
14 | 57:01.58 | 7:01.15 | 256633 | 288222


Track 1

Filename D:\_Post\Arrau\CD3\01 - Chopin - Scherzo No. 4 in E, Op.54.wav

Pre-gap length 0:00:02.00

Peak level 64.8 %
Extraction speed 6.6 X
Track quality 100.0 %
Test CRC 2568C8D7
Copy CRC 2568C8D7
Accurately ripped (confidence 2) [6DC3D7A7] (AR v2)
Copy OK

Track 2

Filename D:\_Post\Arrau\CD3\02 - Liszt - Meine Freuden.wav

Peak level 69.4 %
Extraction speed 7.0 X
Track quality 100.0 %
Test CRC 9AAF84F0
Copy CRC 9AAF84F0
Accurately ripped (confidence 2) [E35D6403] (AR v2)
Copy OK

Track 3

Filename D:\_Post\Arrau\CD3\03 - Debussy - La Puerta del Vino.wav

Peak level 86.1 %
Extraction speed 7.3 X
Track quality 100.0 %
Test CRC 5E783D8D
Copy CRC 5E783D8D
Accurately ripped (confidence 2) [48FF6B12] (AR v2)
Copy OK

Track 4

Filename D:\_Post\Arrau\CD3\04 - Granados - Quejas, o la maja y el ruisenor.wav

Peak level 99.9 %
Extraction speed 8.2 X
Track quality 100.0 %
Test CRC 5AC7FECF
Copy CRC 5AC7FECF
Accurately ripped (confidence 2) [7BABFD10] (AR v2)
Copy OK

Track 5

Filename D:\_Post\Arrau\CD3\05 - Chopin - Ballade No. 3 in A flat, Op.47.wav

Peak level 76.2 %
Extraction speed 8.9 X
Track quality 100.0 %
Test CRC AA1A84AE
Copy CRC AA1A84AE
Accurately ripped (confidence 2) [83AC6E68] (AR v2)
Copy OK

Track 6

Filename D:\_Post\Arrau\CD3\06 - Chopin - Scherzo No. 3 in C sharp minor, Op.39.wav

Peak level 99.8 %
Extraction speed 9.5 X
Track quality 100.0 %
Test CRC EB46AF2F
Copy CRC EB46AF2F
Accurately ripped (confidence 2) [BD59B91F] (AR v2)
Copy OK

Track 7

Filename D:\_Post\Arrau\CD3\07 - Chopin - Etude in F minor, Op.25 No.2.wav

Peak level 46.2 %
Extraction speed 6.9 X
Track quality 100.0 %
Test CRC 1892E559
Copy CRC 1892E559
Accurately ripped (confidence 2) [C0B3FA44] (AR v2)
Copy OK

Track 8

Filename D:\_Post\Arrau\CD3\08 - Chopin - Etude in C sharp minor, Op.10 No.4.wav

Peak level 58.8 %
Extraction speed 8.3 X
Track quality 100.0 %
Test CRC 3C51ADB7
Copy CRC 3C51ADB7
Accurately ripped (confidence 2) [CC4C2744] (AR v2)
Copy OK

Track 9

Filename D:\_Post\Arrau\CD3\09 - Prelude in F, Op.28 No.23.wav

Peak level 45.1 %
Extraction speed 4.1 X
Track quality 99.8 %
Test CRC 14B96075
Copy CRC 14B96075
Accurately ripped (confidence 2) [4E31722C] (AR v2)
Copy OK

Track 10

Filename D:\_Post\Arrau\CD3\10 - Etude in A flat, Op.25 No.1.wav

Peak level 43.5 %
Extraction speed 6.7 X
Track quality 99.9 %
Test CRC 4697B918
Copy CRC 4697B918
Accurately ripped (confidence 2) [96DC5774] (AR v2)
Copy OK

Track 11

Filename D:\_Post\Arrau\CD3\11 - Waltz No. 4 in F, Op.34 No.3.wav

Peak level 46.3 %
Extraction speed 8.6 X
Track quality 100.0 %
Test CRC 1EF02C8E
Copy CRC 1EF02C8E
Accurately ripped (confidence 2) [05E20B04] (AR v2)
Copy OK

Track 12

Filename D:\_Post\Arrau\CD3\12 - Schubert - Standchen D889.wav

Peak level 52.1 %
Extraction speed 9.4 X
Track quality 100.0 %
Test CRC C626B9FE
Copy CRC C626B9FE
Accurately ripped (confidence 2) [8F4EE179] (AR v2)
Copy OK

Track 13

Filename D:\_Post\Arrau\CD3\13 - Liszt - Valse melancolique.wav

Peak level 53.1 %
Extraction speed 10.3 X
Track quality 100.0 %
Test CRC E918C36A
Copy CRC E918C36A
Accurately ripped (confidence 2) [A8605183] (AR v2)
Copy OK

Track 14

Filename D:\_Post\Arrau\CD3\14 - Liszt - Les Jeux d'eau a la Villa d'Este.wav

Peak level 53.7 %
Extraction speed 11.1 X
Track quality 100.0 %
Test CRC 5FD8BCA3
Copy CRC 5FD8BCA3
Accurately ripped (confidence 2) [C7CF7986] (AR v2)
Copy OK


All tracks accurately ripped

No errors occurred

End of status report

–– CUETools DB Plugin V2.1.6

[CTDB TOCID: p1CQfoUDluGMTqCmXrQ6_KaFYfo-] found
Submit result: p1CQfoUDluGMTqCmXrQ6_KaFYfo- has been confirmed
Track | CTDB Status
1 | (1/1) Accurately ripped
2 | (1/1) Accurately ripped
3 | (1/1) Accurately ripped
4 | (1/1) Accurately ripped
5 | (1/1) Accurately ripped
6 | (1/1) Accurately ripped
7 | (1/1) Accurately ripped
8 | (1/1) Accurately ripped
9 | (1/1) Accurately ripped
10 | (1/1) Accurately ripped
11 | (1/1) Accurately ripped
12 | (1/1) Accurately ripped
13 | (1/1) Accurately ripped
14 | (1/1) Accurately ripped


==== Log checksum E4786049644040AB8E83C212AD166F6A4FFE001939FD2588AB68FA8012921084 ====



Claudio Arrau - Rarities 1929-1951 (2014) {3CD Set Warner Classics 2564 63942-7}



===