Tags
Language
Tags

Clora Bryant - Gal with a Horn (1957/1995)

Posted By: Domestos
Clora Bryant - Gal with a Horn (1957/1995)

Clora Bryant - Gal with a Horn (1957/1995)
EAC Rip | FLAC (tracks+.cue, log) ~ 85.70 Mb | 28:37 | Covers
Vocal Jazz | Label: V.S.O.P. Records - V.S.O.P. #42 CD

This VSOP CD (which reissues a Mode LP from 1957) features Bryant heading a quartet (comprised of pianist Roger Fleming, bassist Ben Tucker, and drummer Bruz Freeman) that is sometimes augmented by Walter Benton on tenor and trumpeter Normie Faye (who sticks to section work). Bryant, who also sings, does a fine job of interpreting eight standards, with the highlights including "Sweet Georgia Brown," "Tea for Two," and "This Can't Be Love." ~ AllMusic Review by Scott Yanow



Track List:
01. Gypsy in My Soul (Boland-Jaffe) - 2:48
02. Makin' Whoopee (Donaldson-Kahn) - 3:34
03. Man with a Horn (Lake-Jenny-DeLange) - 3:58
04. Sweet Georgia Brown (Bernie-Pinkard-Casey) - 4:37
05. Tea for Two (Youmans-Caesar) - 3:47
06. This Can't Be Love (Rodgers-Hart) - 4:36
07. Little Girl Blue (Rodgers-Hart) - 3:11
08. S'posin' (Denniker-Razaf) - 2:06

Clora Bryant - vocals, trumpet
Roger Fleming - piano
Ben Tucker - bass
Buzz Freeman - drums
Walter Benton - tenor saxophone
Norman Faye - trumpet

Recorded in Hollywood, CA in June 1957.

Clora Bryant - Gal with a Horn (1957/1995)

Exact Audio Copy V0.99 prebeta 5 from 4. May 2009

EAC extraction logfile from 14. September 2010, 22:15

Clora Bryant / Gal with a Horn

Used drive : PIONEER DVD-RW DVR-212D Adapter: 4 ID: 0

Read mode : Secure
Utilize accurate stream : Yes
Defeat audio cache : Yes
Make use of C2 pointers : No

Read offset correction : 48
Overread into Lead-In and Lead-Out : No
Fill up missing offset samples with silence : Yes
Delete leading and trailing silent blocks : No
Null samples used in CRC calculations : Yes
Used interface : Native Win32 interface for Win NT & 2000
Gap handling : Appended to previous track

Used output format : User Defined Encoder
Selected bitrate : 320 kBit/s
Quality : High
Add ID3 tag : No
Command line compressor : C:\Program Files\Exact Audio Copy\Flac\flac.exe
Additional command line options : -V -8 -T "artist=%a" -T "title=%t" -T "album=%g" -T "date=%y" -T "tracknumber=%n" -T "genre=%m" %s


TOC of the extracted CD

Track | Start | Length | Start sector | End sector
––––––––––––––––––––––––––––-
1 | 0:00.00 | 2:48.22 | 0 | 12621
2 | 2:48.22 | 3:34.20 | 12622 | 28691
3 | 6:22.42 | 3:58.05 | 28692 | 46546
4 | 10:20.47 | 4:36.65 | 46547 | 67311
5 | 14:57.37 | 3:47.33 | 67312 | 84369
6 | 18:44.70 | 4:36.22 | 84370 | 105091
7 | 23:21.17 | 3:10.48 | 105092 | 119389
8 | 26:31.65 | 2:05.52 | 119390 | 128816


Track 1

Filename C:\Documents and Settings\wombat\Desktop\Clora Bryant - Gal with a Horn [FLAC]\01. Gypsy In My Soul.wav

Pre-gap length 0:00:02.00

Peak level 88.3 %
Track quality 100.0 %
Test CRC AA90686F
Copy CRC AA90686F
Track not present in AccurateRip database
Copy OK

Track 2

Filename C:\Documents and Settings\wombat\Desktop\Clora Bryant - Gal with a Horn [FLAC]\02. Makin' Whoopee.wav

Pre-gap length 0:00:04.02

Peak level 77.5 %
Track quality 100.0 %
Test CRC B4395535
Copy CRC B4395535
Track not present in AccurateRip database
Copy OK

Track 3

Filename C:\Documents and Settings\wombat\Desktop\Clora Bryant - Gal with a Horn [FLAC]\03. Man with the Horn.wav

Pre-gap length 0:00:04.89

Peak level 62.1 %
Track quality 99.9 %
Test CRC B2B858BE
Copy CRC B2B858BE
Track not present in AccurateRip database
Copy OK

Track 4

Filename C:\Documents and Settings\wombat\Desktop\Clora Bryant - Gal with a Horn [FLAC]\04. Sweet Georgia Brown.wav

Pre-gap length 0:00:04.29

Peak level 70.3 %
Track quality 100.0 %
Test CRC AB205504
Copy CRC AB205504
Track not present in AccurateRip database
Copy OK

Track 5

Filename C:\Documents and Settings\wombat\Desktop\Clora Bryant - Gal with a Horn [FLAC]\05. Tea for Two.wav

Pre-gap length 0:00:04.02

Peak level 98.6 %
Track quality 99.9 %
Test CRC DB421269
Copy CRC DB421269
Track not present in AccurateRip database
Copy OK

Track 6

Filename C:\Documents and Settings\wombat\Desktop\Clora Bryant - Gal with a Horn [FLAC]\06. This Can't Be Love.wav

Pre-gap length 0:00:04.24

Peak level 99.8 %
Track quality 99.9 %
Test CRC A66E84F3
Copy CRC A66E84F3
Track not present in AccurateRip database
Copy OK

Track 7

Filename C:\Documents and Settings\wombat\Desktop\Clora Bryant - Gal with a Horn [FLAC]\07. Little Girl Blue.wav

Pre-gap length 0:00:04.73

Peak level 55.3 %
Track quality 100.0 %
Test CRC 08CE7E9B
Copy CRC 08CE7E9B
Track not present in AccurateRip database
Copy OK

Track 8

Filename C:\Documents and Settings\wombat\Desktop\Clora Bryant - Gal with a Horn [FLAC]\08. S'posin'.wav

Pre-gap length 0:00:04.50

Peak level 58.1 %
Track quality 100.0 %
Test CRC D0B7213F
Copy CRC D0B7213F
Track not present in AccurateRip database
Copy OK


None of the tracks are present in the AccurateRip database

No errors occurred

End of status report

All thanks go to the redacted

More Music in My Blog
Follow My RSS Channel