Subcategories

Coleman Hawkins - Soul (1958) [Remastered 1989] {PROPER}

Posted By: Bezz
Coleman Hawkins - Soul (1958) [Remastered 1989] {PROPER}

Coleman Hawkins - Soul (1958) [Remastered 1989] {PROPER}
EAC rip | FLAC + CUE + LOG | Full Scans | 200 Mb (Incl. Recovery)
Genre ~ Early Jazz, Mainstream Jazz, Saxophone Jazz | Label ~ Prestige Records

Coleman Hawkins only enhanced his stature as a giant of jazz throughout his years with Prestige Records ('58-'62). The father of the modern saxophone, the inimitable Hawkins was able to change and adapt with the times like few of his contemporaries. Throughout his career, however, he always remained true to his roots in blues and swing while simultaneously charting new musical territories.

On SOUL, we hear one of the saxophone legend's finest later recordings. Using a young rhythm section, including guitarist Kenny Burrell and pianist Ray Bryant, Hawkins and his band swing with great ease and buoyancy, with Hawkins' own playing especially melodic and sensitive. Highlights include the ballad, "Until the Real Thing Comes Along" and the uptempo burner "Sweetnin'," which features a superb guitar solo by Burrell. An album that displays the musical variety of which these jazzmen are capable, SOUL is replete with both relaxed and energetic moments. ~ CDUniverse


Tracklist

01. Soul Blues [0:09:56.22]
02. I Hadn't Anyone Till You [0:04:38.38]
03. Groovin' [0:05:47.37]
04. Greensleeves [0:03:16.25]
05. Sunday Mornin' [0:06:32.73]
06. Until The Real Thing Comes Along [0:04:46.35]
07. Sweetnin' [0:06:50.55]


Personnel

Coleman Hawkins (tenor saxophone)
Ray Bryant (piano)
Kenny Burrell (guitar)
Wendall Marshall (bass)
Osie Johnson (drums)

Recorded at the Van Gelder Studio, Hackensack, New Jersey on November 7, 1958.


Exact Audio Copy V1.0 beta 1 from 15. November 2010

EAC extraction logfile from 22. January 2011, 0:56

Coleman Hawkins / Soul

Used drive : LITE-ON CD-RW SOHR-5238S Adapter: 6 ID: 3

Read mode : Secure
Utilize accurate stream : Yes
Defeat audio cache : Yes
Make use of C2 pointers : No

Read offset correction : 6
Overread into Lead-In and Lead-Out : No
Fill up missing offset samples with silence : Yes
Delete leading and trailing silent blocks : No
Null samples used in CRC calculations : Yes
Used interface : Installed external ASPI interface
Gap handling : Appended to previous track

Used output format : Internal WAV Routines
Sample format : 44.100 Hz; 16 Bit; Stereo


TOC of the extracted CD

Track | Start | Length | Start sector | End sector
––––––––––––––––––––––––––––-
1 | 0:00.00 | 9:56.22 | 0 | 44721
2 | 9:56.22 | 4:38.38 | 44722 | 65609
3 | 14:34.60 | 5:47.37 | 65610 | 91671
4 | 20:22.22 | 3:16.25 | 91672 | 106396
5 | 23:38.47 | 6:32.73 | 106397 | 135869
6 | 30:11.45 | 4:46.35 | 135870 | 157354
7 | 34:58.05 | 6:50.55 | 157355 | 188159


Track 1

Filename F:\eac\Coleman Soul\01 - Soul Blues.wav

Pre-gap length 0:00:02.00

Peak level 65.0 %
Extraction speed 6.5 X
Track quality 100.0 %
Test CRC 334A3E85
Copy CRC 334A3E85
Cannot be verified as accurate (confidence 7) [66B337B5], AccurateRip returned [7EFAD407]
Copy OK

Track 2

Filename F:\eac\Coleman Soul\02 - I Hadn't Anyone Till You.wav

Pre-gap length 0:00:01.35

Peak level 64.2 %
Extraction speed 7.1 X
Track quality 100.0 %
Test CRC FB0206FB
Copy CRC FB0206FB
Cannot be verified as accurate (confidence 8) [FA88C4B5], AccurateRip returned [AD277D7A]
Copy OK

Track 3

Filename F:\eac\Coleman Soul\03 - Groovin'.wav

Pre-gap length 0:00:02.13

Peak level 66.3 %
Extraction speed 7.9 X
Track quality 100.0 %
Test CRC 8BE4345B
Copy CRC 8BE4345B
Cannot be verified as accurate (confidence 8) [15E64246], AccurateRip returned [01A41A52]
Copy OK

Track 4

Filename F:\eac\Coleman Soul\04 - Greensleeves.wav

Pre-gap length 0:00:01.62

Peak level 61.1 %
Extraction speed 7.7 X
Track quality 100.0 %
Test CRC CA078597
Copy CRC CA078597
Cannot be verified as accurate (confidence 7) [F2FDAF67], AccurateRip returned [CDBFE49A]
Copy OK

Track 5

Filename F:\eac\Coleman Soul\05 - Sunday Mornin'.wav

Pre-gap length 0:00:02.25

Peak level 73.2 %
Extraction speed 9.0 X
Track quality 100.0 %
Test CRC 447056D0
Copy CRC 447056D0
Cannot be verified as accurate (confidence 8) [6DBEA4C0], AccurateRip returned [80134E04]
Copy OK

Track 6

Filename F:\eac\Coleman Soul\06 - Until The Real Thing Comes Along.wav

Pre-gap length 0:00:02.60

Peak level 65.5 %
Extraction speed 9.2 X
Track quality 100.0 %
Test CRC 0972BD0D
Copy CRC 0972BD0D
Cannot be verified as accurate (confidence 7) [98E06EE8], AccurateRip returned [F72E8E5F]
Copy OK

Track 7

Filename F:\eac\Coleman Soul\07 - Sweetnin'.wav

Pre-gap length 0:00:03.60

Peak level 74.0 %
Extraction speed 10.1 X
Track quality 100.0 %
Test CRC 2B4BD075
Copy CRC 2B4BD075
Cannot be verified as accurate (confidence 7) [C17A1230], AccurateRip returned [65369B8B]
Copy OK


No tracks could be verified as accurate
You may have a different pressing from the one(s) in the database

No errors occurred

End of status report

==== Log checksum CAEE9FC91A00B92BA4F77135D373918BFA5C601D00B9F0744870B7B9653EA724 ====



Coleman Hawkins - 			  		  		  		 	 	  	 			   		   	  		 			  		 	 	  	 			   		   	  		  	   		      	 			   		   	  		 			  		 	  			 Soul (1958) [Remastered 1989] {PROPER}


Coleman Hawkins - Soul (1958) [Remastered 1989] {PROPER}



Special thanks to the original uploader, stones2621!