Subcategories

Cream Anthems - Mixed by Seb Fontaine (1998) [disc 2 only]

Posted By: z22
Cream Anthems - Mixed by Seb Fontaine (1998) [disc 2 only]

Cream Anthems - Mixed by Seb Fontaine (1998) DISC 2 ONLY
House, Trance DJ Mix | FLAC+CUE | 534 MB


Tracklist:

01. The Knowledge - As (Until The Day) (Solar Mix)
02. Stardust - Music Sounds Better With You (DJ Sneak Mix)
03. Danny Tenaglia - Music Is The Answer (Dancin' & Prancin') (D-Tour Mix)
04. Soundscapers - What Is Love (Original)
05. Lustral - Everytime (Nalin And Kane Remix)
06. Partision - No Me Gustah (Original 12")
07. Y Traxx - Mystery Land (Fontaine And Vern Mix)
08. Lucid - I Can't Help Myself (Original 12" Mix)
09. Radical Playaz - The Hook (Dave's Rubber Dub Mix)
10. Signum - What Ya Got 4 Me (Original Vocal Mix)
11. Mea Culpa - Spiritual Light (Original Version)
12. Ayla - Ayla (Space Brothers Meet Sacha Collisson Remix)
13. Binary Finary - 1998 (Matt Darey Remix)
14. Hand's Burn - Good Shot (12" Mix)
15. The Effect - Day Mission (Tin Tin Out Mix)
16. Three Drives - Greece 2000 (York Remix)

Log file is missing as this was ripped years ago, but there are no audible errors (except for the slight vinyl surface noise). If you have Disc 1, please share a FLAC rip!

More info
Download (Mirrors welcome)


PERFORMER "Seb Fontaine"
TITLE "Cream Anthems 98 CD2"
FILE "Cream Anthems 98 CD2.flac" FLAC

TRACK 01 AUDIO
INDEX 01 00:00:00
REM MSF: 00:00:00 = LBA: 0
TITLE "As (Until The Day) (Solar Mix)"
PERFORMER "The Knowledge"
TRACK 02 AUDIO
INDEX 01 03:23:60
REM MSF: 03:23:60 = LBA: 15285
TITLE "Music Sounds Better With You (DJ Sneak Mix)"
PERFORMER "Stardust"
TRACK 03 AUDIO
INDEX 01 06:54:25
REM MSF: 06:54:25 = LBA: 31075
TITLE "Music Is The Answer (Dancin' & Prancin') (D-Tour Mix)"
PERFORMER "Danny Tenaglia"
TRACK 04 AUDIO
INDEX 01 11:11:32
REM MSF: 11:11:32 = LBA: 50357
TITLE "What Is Love (Original Mix)"
PERFORMER "Soundscapers"
TRACK 05 AUDIO
INDEX 01 15:43:15
REM MSF: 15:43:15 = LBA: 70740
TITLE "Everytime (Nalin And Kane Remix)"
PERFORMER "Lustral"
TRACK 06 AUDIO
INDEX 01 20:09:02
REM MSF: 20:09:02 = LBA: 90677
TITLE "No Me Gustah (Original 12)"
PERFORMER "Partision"
TRACK 07 AUDIO
INDEX 01 25:54:52
REM MSF: 25:54:52 = LBA: 116602
TITLE "Mystery Land (Fontaine and Vern Mix)"
PERFORMER "Y Traxx"
TRACK 08 AUDIO
INDEX 01 32:13:42
REM MSF: 32:13:42 = LBA: 145017
TITLE "I Can't Help Myself (Original 12 Mix)"
PERFORMER "Lucid"
TRACK 09 AUDIO
INDEX 01 35:59:45
REM MSF: 35:59:45 = LBA: 161970
TITLE "The Hook (Dave's Rubber Dub Mix)"
PERFORMER "Radical Playaz"
TRACK 10 AUDIO
INDEX 01 41:42:40
REM MSF: 41:42:40 = LBA: 187690
TITLE "What Ya Got 4 Me (Original Vocal Mix)"
PERFORMER "Signum"
TRACK 11 AUDIO
INDEX 01 47:06:60
REM MSF: 47:06:60 = LBA: 212010
TITLE "Spiritual Light (Original Version)"
PERFORMER "Mea Culpa"
TRACK 12 AUDIO
INDEX 01 52:13:40
REM MSF: 52:13:40 = LBA: 235015
TITLE "Ayla (Space Brothers Meets Sacha Collisson Remix)"
PERFORMER "Ayla"
TRACK 13 AUDIO
INDEX 01 58:05:52
REM MSF: 58:05:52 = LBA: 261427
TITLE "1998 (Matt Darey Remix)"
PERFORMER "Binary Finary"
TRACK 14 AUDIO
INDEX 01 62:37:67
REM MSF: 62:37:67 = LBA: 281842
TITLE "Good Shot (12 Mix)"
PERFORMER "Hand's Burn"
TRACK 15 AUDIO
INDEX 01 67:58:45
REM MSF: 67:58:45 = LBA: 305895
TITLE "Day Mission (Tin Tin Out Mix)"
PERFORMER "The Effect"
TRACK 16 AUDIO
INDEX 01 71:54:50
REM MSF: 71:54:50 = LBA: 323600
TITLE "Greece 2000 (York Remix)"
PERFORMER "Three Drives"