Tags
Language
Tags
February 2023
Su Mo Tu We Th Fr Sa
29 30 31 1 2 3 4
5 6 7 8 9 10 11
12 13 14 15 16 17 18
19 20 21 22 23 24 25
26 27 28 1 2 3 4

Crowded House - Fingers Of Love, Pt. 2 (1994) {Capitol Records CDCL715, rarities}

Posted By: ruskaval
Crowded House - Fingers Of Love, Pt. 2 (1994) {Capitol Records CDCL715, rarities}

Crowded House - Fingers Of Love, Pt. 2 (1994) {Capitol Records CDCL715, rarities}
EAC rip (secure mode) | FLAC (tracks)+CUE+LOG -> 108 Mb | MP3 @320 -> 42 Mb
Full Artwork @ 300 dpi (jpg) -> 24 Mb | 5% repair rar
© 1994 Capitol Records | CDCL 715 / 7243 8 81418 2 6
Rock / Soft Rock / Pop Rock / Alternative Pop

The moody and atmospheric "Fingers of Love" was released as a two-part single in the U.K. While it is certainly an odd choice as a single, it does stand as one of the defining moments of Together Alone. Pt 2 of the "Fingers Of Love" single. Great artwork again and this time the rarities are rarer than usual. Both live tracks are only available on this single.
Crowded House - Fingers Of Love, Pt. 2 (1994) {Capitol Records CDCL715, rarities}


Track Listing:

1 Fingers Of Love (4:27)
2 Catherine Wheels (5:12)
3 Pineapple Head * (4:12)
4 Something So Strong ** (3:39)

* The Tower Theatre, Philadelphia, PA (94/04/09)
** The Arlington Theatre, Santa Barbara, CA (94/03/18)

3 only available here, no recording info given.
4 only available here, recorded live to DAT.


Exact Audio Copy V1.0 beta 2 from 29. April 2011

EAC extraction logfile from 9. April 2012, 17:58

Crowded House / Fingers Of Love (Part 2) (CDCL 715)

Used drive : TEAC DVD+-RW DVW28SLC Adapter: 1 ID: 0

Read mode : Secure
Utilize accurate stream : Yes
Defeat audio cache : Yes
Make use of C2 pointers : No

Read offset correction : 48
Overread into Lead-In and Lead-Out : No
Fill up missing offset samples with silence : Yes
Delete leading and trailing silent blocks : No
Null samples used in CRC calculations : Yes
Used interface : Native Win32 interface for Win NT & 2000
Gap handling : Appended to previous track

Used output format : User Defined Encoder
Selected bitrate : 256 kBit/s
Quality : High
Add ID3 tag : No
Command line compressor : C:\Program Files\Exact Audio Copy\FLAC\FLAC.EXE
Additional command line options : -8 -V -T "ARTIST=%artist%" -T "TITLE=%title%" -T "ALBUM=%albumtitle%" -T "DATE=%year%" -T "TRACKNUMBER=%tracknr%" -T "TOTALTRACKS=%numtracks%" -T "GENRE=%genre%" -T "ALBUMARTIST=%albumartist%" -T "ALBUM ARTIST=%albumartist%


TOC of the extracted CD

Track | Start | Length | Start sector | End sector
––––––––––––––––––––––––––––-
1 | 0:00.33 | 4:27.27 | 33 | 20084
2 | 4:27.60 | 5:12.55 | 20085 | 43539
3 | 9:40.40 | 4:12.48 | 43540 | 62487
4 | 13:53.13 | 3:39.37 | 62488 | 78949


Track 1

Filename C:\Users\viktor\Music\Crowded House - Fingers Of Love pt 2 (1994) [FLAC] (rarities)\01 - Fingers Of Love.wav

Pre-gap length 0:00:02.33

Peak level 87.6 %
Extraction speed 2.8 X
Track quality 100.0 %
Test CRC B81D6B61
Copy CRC B81D6B61
Accurately ripped (confidence 4) [3F4B947B] (AR v1)
Copy OK

Track 2

Filename C:\Users\viktor\Music\Crowded House - Fingers Of Love pt 2 (1994) [FLAC] (rarities)\02 - Catherine Wheels.wav

Pre-gap length 0:00:00.02

Peak level 84.8 %
Extraction speed 2.9 X
Track quality 99.9 %
Test CRC BD8B173F
Copy CRC BD8B173F
Accurately ripped (confidence 4) [D75D579B] (AR v1)
Copy OK

Track 3

Filename C:\Users\viktor\Music\Crowded House - Fingers Of Love pt 2 (1994) [FLAC] (rarities)\03 - Pineapple Head (Live).wav

Pre-gap length 0:00:00.02

Peak level 97.7 %
Extraction speed 3.0 X
Track quality 99.9 %
Test CRC CAE0D20E
Copy CRC CAE0D20E
Accurately ripped (confidence 6) [CA76B69C] (AR v1)
Copy OK

Track 4

Filename C:\Users\viktor\Music\Crowded House - Fingers Of Love pt 2 (1994) [FLAC] (rarities)\04 - Something So Strong (Live).wav

Pre-gap length 0:00:00.03

Peak level 97.7 %
Extraction speed 3.1 X
Track quality 99.9 %
Test CRC 0B873ECC
Copy CRC 0B873ECC
Accurately ripped (confidence 6) [A93E24B9] (AR v1)
Copy OK


All tracks accurately ripped

No errors occurred

End of status report

==== Log checksum 963A8EB17E1CB1C2BBFD679FC630B0586BCAAD4EF646A27383EF9F2F815C372D ====


Crowded House - Fingers Of Love, Pt. 2 (1994) {Capitol Records CDCL715, rarities}

Crowded House - Fingers Of Love, Pt. 2 (1994) {Capitol Records CDCL715, rarities}


see also:
Crowded House - Fingers Of Love pt 1…



===