Subcategories

Curtis Mosby and Henry Starr - Recorded On The West Coast And London, 1924-1939 (1996) {Jazz Oracle BDW8003}

Posted By: ruskaval
Curtis Mosby and Henry Starr - Recorded On The West Coast And London, 1924-1939 (1996) {Jazz Oracle BDW8003}

Curtis Mosby and Henry Starr - Recorded On The West Coast And London, 1924-1939 (1996) {Jazz Oracle BDW8003}
EAC rip (secure mode) | FLAC (tracks)+CUE+LOG -> 286 Mb | MP3 @320 -> 170 Mb
Full Artwork @ 300 dpi (jpg) -> 39 Mb | 5% repair rar
© 1924-39, 1996 Jazz Oracle | BDW 8003
Jazz / Early Jazz

Most of this CD is the complete output by Curtis Mosby & His Dixieland Blue Blowers, one of the top jazz bands active in Los Angeles in the 1920s. Although the soundtrack from its appearance in the 1929 movie Hallelujah is not here, this disc has the first-time release of two numbers from a scratchy 1924 test pressing. Otherwise, the eight selections and four alternate takes from 1927-1929 are full of spirit and strong musicianship, with highlights including "Weary Stomp," "Whoop 'Em Up Blues," "Blue Blower's Blues," "Hardee Stomp," and three versions of "Tiger Stomp."

Mosby's pianist Henry Starr (who sings on "In My Dreams") is featured on the second half of the CD. He plays piano on four solo numbers from 1928-1929 (taking vocals on two songs) and is teamed with singer Ivan Harold Browning and a rhythm section in London in 1935, performing vocal duets on seven rather rare (but infectious) performances, including "Let's Go Ballyhoo," "Lulu's Back in Town," and "Truckin'." This CD is easily recommended to fans of 1920s jazz.

This is an amazing compilation of a virtually unknown territory band (namely Curtis Mosby and his Dixieland Blue Blowers) which recorded but a dozen sides for Columbia in the late twenties. They form the core of the CD, and include four alternate takes, yet with sufficient variety to justify their inclusion. They are preceded by two unissued tests recorded by the embryonic Dixieland Blue Blowers a couple of years earlier. Henry Starr was the pianist and Curtis Mosby the drummer; four of Starr's piano solos from 1928/29 follow the orchestral sides. Henry Starr resurfaced in London in the mid-thirties as part of a 5-piece which recorded as Browning and Starr. This was a very different genre, but the six sides issued on Regal Zonophone, and a 1939 unissued HMV side are included in order to bring the CD up to a respectable playing time.

This is a beautifully remastered set with a well illustrated and informative liner note, and is an indispensable acquisition for anyone interested in early jazz and more particularly territory bands.
Curtis Mosby and Henry Starr - Recorded On The West Coast And London, 1924-1939 (1996) {Jazz Oracle BDW8003}


Musicians
Drums Curtis Mosby
Piano, Vocals Henry Starr
Trumpet Henry Barken
Trombone Lloyd Allen
Reeds H.L. Brassfield
Banjo Fred Vaughan
Trumpet James Porter
Trombone Ashford Hardee
Clarinet, Saxophone Charles Hite
Clarinet, Saxophone Leo Davis
Saxophone Hubert "Bumps" Myers
Violin Attwell Rose
Banjo Thomas Valentine
Clarinet, Saxophone Charlie Lawrence
Clarinet, Saxophone Les Hite
Strings Andy Iona
Piano Walter Johnson
Trombone Country Allen
Vocals Ivan Harold Browning
Guitar George Elliott
Drums Harry Francis

Track Listing

Curtis Mosby; The Dixieland Blue Blowers

01 Riverboat Shuffle 03:19
02 All Night Blues 02:59
03 Weary Stomp 02:58
04 Weary Blues 02:59
05 Whoop 'Em Up Blues 03:11
06 In My Dreams (I'm Jealous Of You) 02:54
07 In My Dreams (I'm Jealous Of You) 02:52
08 Tiger Stomp 03:13
09 Tiger Stomp 03:12
10 Tiger Stomp 03:11
11 Blue Blowers Blues 03:14
12 Hardee Stomp 03:10
13 Between You And Me (And The Deep Blue Sea) 02:49
14 Louisiana Bo Bo 03:14

Henry Starr
15 Blue Eyes 02:19
16 Mr. Froggie 02:07
17 Willow Tree 02:26
18 When I'm Walkin' With My Sweetness 02:54

Henry Starr; Ivan Harold Browning
19 Let's Go Ballyhoo 02:43
20 All Because Of You 03:04
21 Lovely Liza Lee 02:48
22 What Harlem Is To Me 03:03
23 Lulu's Back In Town 02:36
24 Truckin' 02:47
25 Jungle Nights In Montmartre 02:52

Exact Audio Copy V1.1 from 23. June 2015

EAC extraction logfile from 20. January 2018, 11:15

Curtis Mosby-Henry Starr / Recorded On The West Coast And London 1924-1939

Used drive : MATSHITADVD+-RW SW830 Adapter: 1 ID: 0

Read mode : Secure
Utilize accurate stream : Yes
Defeat audio cache : Yes
Make use of C2 pointers : No

Read offset correction : 6
Overread into Lead-In and Lead-Out : No
Fill up missing offset samples with silence : Yes
Delete leading and trailing silent blocks : No
Null samples used in CRC calculations : Yes
Used interface : Native Win32 interface for Win NT & 2000
Gap handling : Appended to previous track

Used output format : User Defined Encoder
Selected bitrate : 896 kBit/s
Quality : High
Add ID3 tag : No
Command line compressor : C:\Program Files (x86)\Exact Audio Copy\Flac\flac.exe
Additional command line options : -8 -V -T "ARTIST=%artist%" -T "TITLE=%title%" -T "ALBUM=%albumtitle%" -T "DATE=%year%" -T "TRACKNUMBER=%tracknr%" -T "TOTALTRACKS=%numtracks%" -T "GENRE=%genre%" -T "ALBUMARTIST=%albumartist%" -T "ALBUM ARTIST=%albumartist%" -T "COMMENT=EAC Secure Mode, Test & Copy, AccurateRip, FLAC -8" %source%


TOC of the extracted CD

Track | Start | Length | Start sector | End sector
––––––––––––––––––––––––––––-
1 | 0:00.00 | 3:18.60 | 0 | 14909
2 | 3:18.60 | 2:59.60 | 14910 | 28394
3 | 6:18.45 | 2:57.50 | 28395 | 41719
4 | 9:16.20 | 3:00.00 | 41720 | 55219
5 | 12:16.20 | 3:11.60 | 55220 | 69604
6 | 15:28.05 | 2:54.15 | 69605 | 82669
7 | 18:22.20 | 2:52.35 | 82670 | 95604
8 | 21:14.55 | 3:13.30 | 95605 | 110109
9 | 24:28.10 | 3:13.27 | 110110 | 124611
10 | 27:41.37 | 3:12.00 | 124612 | 139011
11 | 30:53.37 | 3:14.48 | 139012 | 153609
12 | 34:08.10 | 3:10.12 | 153610 | 167871
13 | 37:18.22 | 2:49.45 | 167872 | 180591
14 | 40:07.67 | 3:14.23 | 180592 | 195164
15 | 43:22.15 | 2:19.22 | 195165 | 205611
16 | 45:41.37 | 2:07.25 | 205612 | 215161
17 | 47:48.62 | 2:26.40 | 215162 | 226151
18 | 50:15.27 | 2:54.15 | 226152 | 239216
19 | 53:09.42 | 2:43.35 | 239217 | 251476
20 | 55:53.02 | 3:04.65 | 251477 | 265341
21 | 58:57.67 | 2:49.05 | 265342 | 278021
22 | 61:46.72 | 3:04.05 | 278022 | 291826
23 | 64:51.02 | 2:36.65 | 291827 | 303591
24 | 67:27.67 | 2:48.00 | 303592 | 316191
25 | 70:15.67 | 2:52.63 | 316192 | 329154


Track 1

Filename G:\New Rips\Curtis Mosby-Henry Starr - Recorded On The West Coast And London 1924-1939 (1996) [FLAC]\01 - Riverboat Shuffle.wav

Pre-gap length 0:00:02.00

Peak level 79.8 %
Extraction speed 1.8 X
Track quality 100.0 %
Test CRC EC0FA342
Copy CRC EC0FA342
Accurately ripped (confidence 1) [942992F1] (AR v1)
Copy OK

Track 2

Filename G:\New Rips\Curtis Mosby-Henry Starr - Recorded On The West Coast And London 1924-1939 (1996) [FLAC]\02 - All Night Blues.wav

Pre-gap length 0:00:03.40

Peak level 67.7 %
Extraction speed 1.9 X
Track quality 100.0 %
Test CRC D5624704
Copy CRC D5624704
Accurately ripped (confidence 1) [6B67AE14] (AR v1)
Copy OK

Track 3

Filename G:\New Rips\Curtis Mosby-Henry Starr - Recorded On The West Coast And London 1924-1939 (1996) [FLAC]\03 - Weary Stomp.wav

Pre-gap length 0:00:03.45

Peak level 71.1 %
Extraction speed 2.1 X
Track quality 100.0 %
Test CRC 5970F6A3
Copy CRC 5970F6A3
Accurately ripped (confidence 1) [7AB0991D] (AR v1)
Copy OK

Track 4

Filename G:\New Rips\Curtis Mosby-Henry Starr - Recorded On The West Coast And London 1924-1939 (1996) [FLAC]\04 - Weary Blues.wav

Pre-gap length 0:00:03.58

Peak level 56.3 %
Extraction speed 2.2 X
Track quality 100.0 %
Test CRC 41073A7F
Copy CRC 41073A7F
Accurately ripped (confidence 1) [8AF712DB] (AR v1)
Copy OK

Track 5

Filename G:\New Rips\Curtis Mosby-Henry Starr - Recorded On The West Coast And London 1924-1939 (1996) [FLAC]\05 - Whoop Em Up Blues.wav

Pre-gap length 0:00:03.38

Peak level 76.2 %
Extraction speed 2.3 X
Track quality 100.0 %
Test CRC 766E3890
Copy CRC 766E3890
Accurately ripped (confidence 1) [31E640AC] (AR v1)
Copy OK

Track 6

Filename G:\New Rips\Curtis Mosby-Henry Starr - Recorded On The West Coast And London 1924-1939 (1996) [FLAC]\06 - In My Dreams.wav

Pre-gap length 0:00:03.53

Peak level 67.6 %
Extraction speed 2.3 X
Track quality 100.0 %
Test CRC B0D782D8
Copy CRC B0D782D8
Accurately ripped (confidence 1) [010C276A] (AR v1)
Copy OK

Track 7

Filename G:\New Rips\Curtis Mosby-Henry Starr - Recorded On The West Coast And London 1924-1939 (1996) [FLAC]\07 - In My Dreams.wav

Pre-gap length 0:00:03.40

Peak level 81.7 %
Extraction speed 2.5 X
Track quality 100.0 %
Test CRC 92C5B3C1
Copy CRC 92C5B3C1
Accurately ripped (confidence 1) [E691D9A9] (AR v1)
Copy OK

Track 8

Filename G:\New Rips\Curtis Mosby-Henry Starr - Recorded On The West Coast And London 1924-1939 (1996) [FLAC]\08 - Tiger Stomp.wav

Pre-gap length 0:00:03.45

Peak level 71.3 %
Extraction speed 2.6 X
Track quality 100.0 %
Test CRC 1661F90A
Copy CRC 1661F90A
Accurately ripped (confidence 1) [1A07D596] (AR v1)
Copy OK

Track 9

Filename G:\New Rips\Curtis Mosby-Henry Starr - Recorded On The West Coast And London 1924-1939 (1996) [FLAC]\09 - Tiger Stomp.wav

Pre-gap length 0:00:03.55

Peak level 75.8 %
Extraction speed 2.7 X
Track quality 100.0 %
Test CRC 18627587
Copy CRC 18627587
Accurately ripped (confidence 1) [C7CBB0AF] (AR v1)
Copy OK

Track 10

Filename G:\New Rips\Curtis Mosby-Henry Starr - Recorded On The West Coast And London 1924-1939 (1996) [FLAC]\10 - Tiger Stomp.wav

Pre-gap length 0:00:03.42

Peak level 65.6 %
Extraction speed 2.8 X
Track quality 100.0 %
Test CRC 51851527
Copy CRC 51851527
Accurately ripped (confidence 1) [3E140A72] (AR v1)
Copy OK

Track 11

Filename G:\New Rips\Curtis Mosby-Henry Starr - Recorded On The West Coast And London 1924-1939 (1996) [FLAC]\11 - Blue Blowers Blues.wav

Pre-gap length 0:00:03.47

Peak level 78.2 %
Extraction speed 2.9 X
Track quality 100.0 %
Test CRC F7E0A6CF
Copy CRC F7E0A6CF
Accurately ripped (confidence 1) [2A7C882A] (AR v1)
Copy OK

Track 12

Filename G:\New Rips\Curtis Mosby-Henry Starr - Recorded On The West Coast And London 1924-1939 (1996) [FLAC]\12 - Hardee Stomp.wav

Pre-gap length 0:00:03.38

Peak level 73.8 %
Extraction speed 3.0 X
Track quality 100.0 %
Test CRC 77677B10
Copy CRC 77677B10
Accurately ripped (confidence 1) [A78B7029] (AR v1)
Copy OK

Track 13

Filename G:\New Rips\Curtis Mosby-Henry Starr - Recorded On The West Coast And London 1924-1939 (1996) [FLAC]\13 - Between You And Me.wav

Pre-gap length 0:00:03.40

Peak level 70.1 %
Extraction speed 3.0 X
Track quality 100.0 %
Test CRC DB6A7624
Copy CRC DB6A7624
Accurately ripped (confidence 1) [552D2BBB] (AR v1)
Copy OK

Track 14

Filename G:\New Rips\Curtis Mosby-Henry Starr - Recorded On The West Coast And London 1924-1939 (1996) [FLAC]\14 - Louisiana Bo Bo.wav

Pre-gap length 0:00:03.40

Peak level 69.1 %
Extraction speed 3.2 X
Track quality 100.0 %
Test CRC D41438BB
Copy CRC D41438BB
Accurately ripped (confidence 1) [C71E7657] (AR v1)
Copy OK

Track 15

Filename G:\New Rips\Curtis Mosby-Henry Starr - Recorded On The West Coast And London 1924-1939 (1996) [FLAC]\15 - Blue Eyes.wav

Pre-gap length 0:00:03.43

Peak level 59.9 %
Extraction speed 3.0 X
Track quality 100.0 %
Test CRC 9145D93D
Copy CRC 9145D93D
Accurately ripped (confidence 1) [EEBCD039] (AR v1)
Copy OK

Track 16

Filename G:\New Rips\Curtis Mosby-Henry Starr - Recorded On The West Coast And London 1924-1939 (1996) [FLAC]\16 - Mr Froggie.wav

Pre-gap length 0:00:03.37

Peak level 62.1 %
Extraction speed 3.0 X
Track quality 100.0 %
Test CRC 19307B09
Copy CRC 19307B09
Accurately ripped (confidence 1) [C477E235] (AR v1)
Copy OK

Track 17

Filename G:\New Rips\Curtis Mosby-Henry Starr - Recorded On The West Coast And London 1924-1939 (1996) [FLAC]\17 - Willow Tree.wav

Pre-gap length 0:00:03.37

Peak level 75.8 %
Extraction speed 3.2 X
Track quality 100.0 %
Test CRC 33B54562
Copy CRC 33B54562
Accurately ripped (confidence 1) [9C932C98] (AR v1)
Copy OK

Track 18

Filename G:\New Rips\Curtis Mosby-Henry Starr - Recorded On The West Coast And London 1924-1939 (1996) [FLAC]\18 - When I'm Walkin With My Sweetness.wav

Pre-gap length 0:00:03.42

Peak level 71.1 %
Extraction speed 3.3 X
Track quality 100.0 %
Test CRC CBD1887F
Copy CRC CBD1887F
Accurately ripped (confidence 1) [1A573AFD] (AR v1)
Copy OK

Track 19

Filename G:\New Rips\Curtis Mosby-Henry Starr - Recorded On The West Coast And London 1924-1939 (1996) [FLAC]\19 - Let's Go Ballyhoo.wav

Pre-gap length 0:00:09.35

Peak level 68.0 %
Extraction speed 3.4 X
Track quality 100.0 %
Test CRC B22F3691
Copy CRC B22F3691
Accurately ripped (confidence 1) [EDC10ADE] (AR v1)
Copy OK

Track 20

Filename G:\New Rips\Curtis Mosby-Henry Starr - Recorded On The West Coast And London 1924-1939 (1996) [FLAC]\20 - All Because Of You.wav

Pre-gap length 0:00:03.50

Peak level 57.2 %
Extraction speed 3.5 X
Track quality 100.0 %
Test CRC 443FBEB0
Copy CRC 443FBEB0
Accurately ripped (confidence 1) [C89180B2] (AR v1)
Copy OK

Track 21

Filename G:\New Rips\Curtis Mosby-Henry Starr - Recorded On The West Coast And London 1924-1939 (1996) [FLAC]\21 - Lovely Liza Lee.wav

Pre-gap length 0:00:03.72

Peak level 59.6 %
Extraction speed 3.5 X
Track quality 100.0 %
Test CRC 1BCF96BB
Copy CRC 1BCF96BB
Accurately ripped (confidence 1) [DE42CCBF] (AR v1)
Copy OK

Track 22

Filename G:\New Rips\Curtis Mosby-Henry Starr - Recorded On The West Coast And London 1924-1939 (1996) [FLAC]\22 - What Harlem Is To Me.wav

Pre-gap length 0:00:03.52

Peak level 69.6 %
Extraction speed 3.7 X
Track quality 100.0 %
Test CRC 32C64C11
Copy CRC 32C64C11
Accurately ripped (confidence 1) [EB74693C] (AR v1)
Copy OK

Track 23

Filename G:\New Rips\Curtis Mosby-Henry Starr - Recorded On The West Coast And London 1924-1939 (1996) [FLAC]\23 - Lulu's Back In Town.wav

Pre-gap length 0:00:03.47

Peak level 79.9 %
Extraction speed 3.6 X
Track quality 100.0 %
Test CRC 54B5D9DC
Copy CRC 54B5D9DC
Accurately ripped (confidence 1) [C1688780] (AR v1)
Copy OK

Track 24

Filename G:\New Rips\Curtis Mosby-Henry Starr - Recorded On The West Coast And London 1924-1939 (1996) [FLAC]\24 - Truckin.wav

Pre-gap length 0:00:03.40

Peak level 65.8 %
Extraction speed 2.6 X
Track quality 99.9 %
Test CRC BF59A3BB
Copy CRC BF59A3BB
Accurately ripped (confidence 1) [5AFCC37B] (AR v1)
Copy OK

Track 25

Filename G:\New Rips\Curtis Mosby-Henry Starr - Recorded On The West Coast And London 1924-1939 (1996) [FLAC]\25 - Jungle Nights In Montmartre.wav

Pre-gap length 0:00:03.52

Peak level 75.5 %
Extraction speed 3.8 X
Track quality 100.0 %
Test CRC 5DAFE1F0
Copy CRC 5DAFE1F0
Accurately ripped (confidence 1) [6ECBD739] (AR v1)
Copy OK


All tracks accurately ripped

No errors occurred

End of status report

–– CUETools DB Plugin V2.1.6

[CTDB TOCID: TFPooUYvw28My4wXYC7ABdZIVF8-] found
Submit result: TFPooUYvw28My4wXYC7ABdZIVF8- has been confirmed
Track | CTDB Status
1 | (3/3) Accurately ripped
2 | (3/3) Accurately ripped
3 | (3/3) Accurately ripped
4 | (3/3) Accurately ripped
5 | (3/3) Accurately ripped
6 | (3/3) Accurately ripped
7 | (3/3) Accurately ripped
8 | (3/3) Accurately ripped
9 | (3/3) Accurately ripped
10 | (3/3) Accurately ripped
11 | (3/3) Accurately ripped
12 | (3/3) Accurately ripped
13 | (3/3) Accurately ripped
14 | (3/3) Accurately ripped
15 | (3/3) Accurately ripped
16 | (3/3) Accurately ripped
17 | (3/3) Accurately ripped
18 | (3/3) Accurately ripped
19 | (3/3) Accurately ripped
20 | (3/3) Accurately ripped
21 | (3/3) Accurately ripped
22 | (3/3) Accurately ripped
23 | (3/3) Accurately ripped
24 | (3/3) Accurately ripped
25 | (3/3) Accurately ripped


==== Log checksum EF175A6434FACB31928EA6B7FE7CE3D84BFAFB2BB5668A9BBD2796E4A7A75BB0 ====


Curtis Mosby and Henry Starr - Recorded On The West Coast And London, 1924-1939 (1996) {Jazz Oracle BDW8003}

Curtis Mosby and Henry Starr - Recorded On The West Coast And London, 1924-1939 (1996) {Jazz Oracle BDW8003}



===