Subcategories
Tags
Language
Tags

Josquin des Prez - Music in the Sistine Chapel around 1490 - Cut Circle (2012) {2CD Set, Musique en Wallonie MEW 1265-1266}

Posted By: ruskaval
Josquin des Prez - Music in the Sistine Chapel around 1490 - Cut Circle (2012) {2CD Set, Musique en Wallonie MEW 1265-1266}

Josquin des Prez - Music in the Sistine Chapel around 1490 - Cut Circle (2012) {2CD Set, Musique en Wallonie MEW 1265-1266}
EAC rip (secure mode) | FLAC (tracks)+CUE+LOG -> 653 Mb | MP3 @320 -> 358 Mb
Full Artwork @ 600 dpi (png) -> 129 Mb | 5% repair rar
© 2012 Musique En Wallonie ‎| MEW 1265-1266
Classical / Reneissance / Sacred / Mass

Аeatures sacred music by Renaissance composers living and working in Rome. Offers new interpretations of music by Josquin des Prez, including his famous Missa L’homme armé super voces musicales. Presents premiere recordings of works by Marbrianus de Orto, Gaspar van Weerbeke, and other scandalously understudied late fifteenth-century singer-composers employed in the newly built chapel of Pope Sixtus IV. In a space that overlooked frescoes by Botticelli and Perugino, they gathered around enormous choirbooks to sing one another’s masses, motets, and hymns. Cut Circle’s recording aims to capture the soundscape of the Sistine Chapel as Josquin knew it.
Josquin des Prez - Music in the Sistine Chapel around 1490 - Cut Circle (2012) {2CD Set, Musique en Wallonie MEW 1265-1266}

Josquin des Prez - Music in the Sistine Chapel around 1490 - Cut Circle (2012) {2CD Set, Musique en Wallonie MEW 1265-1266}


Personnel:

Cut Circle
Jesse Rodin
- conductor

Track Listing:

CD 1

1. Nardi Maria pistici – Josquin Desprez
Missa La sol fa re mi – Josquin Desprez
2. Crucifixus
3. Agnus Dei
Missa Fortuna desperata – Josquin Desprez
4. Gloria
5. Sanctus I
6. Agnus Dei I
7. Dulcis amica mea/Da pacem (a 5) – Gaspar van Weerbeke
8. Ave regina celorum – Gaspar van Weerbeke
9. Missa Princesse d’amourettes : Agnus Dei – Gaspar van Weerbeke
10. Credo (VatS 51, fol. 187v-190r) – Anonyme
11. Lucis creator optime – Marbrianus de Orto
12. Missa Ad fugam : Gloria – Marbrianus de Orto
13. Domine non secundum peccata nostra – Bertrandus Vaqueras
14. Domine non secundum peccata nostra – Josquin Desprez

Josquin des Prez - Music in the Sistine Chapel around 1490 - Cut Circle (2012) {2CD Set, Musique en Wallonie MEW 1265-1266}


CD 2
1. Il sera par vous/ L’homme armé – Du Fay/"Borton"
2. L’homme armé – Anonyme
Missa L’homme armé – Marbrianus de Orto
3. Kyrie
4. Gloria
5. Credo
6. Sanctus
7. Agnus Dei
8. Ave Maria mater gratie (a 5) – Marbrianus de Orto
9. Factum est silentium – chant pour saint Michel
Missa L’homme armé super voces musicales – Josquin Desprez
10. Kyrie
11. Gloria
12. Credo
13. Sanctus
14. Agnus Dei

Josquin des Prez - Music in the Sistine Chapel around 1490 - Cut Circle (2012) {2CD Set, Musique en Wallonie MEW 1265-1266}


Exact Audio Copy V1.0 beta 3 from 29. August 2011

EAC extraction logfile from 3. June 2013, 17:52

Cut Circle / De Orto and Josquin: Music in the Sistine Chapel around 1490

Used drive : HL-DT-STDVD-RAM GH40L Adapter: 2 ID: 1

Read mode : Secure
Utilize accurate stream : Yes
Defeat audio cache : Yes
Make use of C2 pointers : No

Read offset correction : 667
Overread into Lead-In and Lead-Out : No
Fill up missing offset samples with silence : Yes
Delete leading and trailing silent blocks : No
Null samples used in CRC calculations : Yes
Used interface : Native Win32 interface for Win NT & 2000
Gap handling : Appended to previous track

Used output format : User Defined Encoder
Selected bitrate : 1024 kBit/s
Quality : High
Add ID3 tag : No
Command line compressor : C:\Program Files\Exact Audio Copy\FLAC\FLAC.EXE
Additional command line options : -8 -V -T "ARTIST=%artist%" -T "TITLE=%title%" -T "ALBUM=%albumtitle%" -T "DATE=%year%" -T "TRACKNUMBER=%tracknr%" -T "GENRE=%genre%" -T "COMMENT=%comment%" -T "BAND=%albuminterpret%" -T "ALBUMARTIST=%albuminterpret%" -T "COMPOSER=%composer%" %haslyrics%–tag-from-file=LYRICS="%lyricsfile%"%haslyrics% -T "DISCNUMBER=%cdnumber%" -T "TOTALDISCS=%totalcds%" -T "TOTALTRACKS=%numtracks%" %hascover%–picture="%coverfile%"%hascover% %source% -o %dest%


TOC of the extracted CD

Track | Start | Length | Start sector | End sector
––––––––––––––––––––––––––––-
1 | 0:00.00 | 1:49.41 | 0 | 8215
2 | 1:49.41 | 4:46.32 | 8216 | 29697
3 | 6:35.73 | 4:54.23 | 29698 | 51770
4 | 11:30.21 | 6:08.05 | 51771 | 79375
5 | 17:38.26 | 2:18.62 | 79376 | 89787
6 | 19:57.13 | 2:15.62 | 89788 | 99974
7 | 22:13.00 | 8:04.55 | 99975 | 136329
8 | 30:17.55 | 6:43.53 | 136330 | 166607
9 | 37:01.33 | 6:12.08 | 166608 | 194515
10 | 43:13.41 | 8:45.18 | 194516 | 233908
11 | 51:58.59 | 4:17.74 | 233909 | 253257
12 | 56:16.58 | 5:16.03 | 253258 | 276960
13 | 61:32.61 | 6:03.56 | 276961 | 304241
14 | 67:36.42 | 7:08.42 | 304242 | 336383


Track 1

Filename C:\Users\Ian\EAC\01 - Josquin Desprez - Nardi Maria pistici - Josquin Desprez.wav

Pre-gap length 0:00:02.00

Peak level 51.1 %
Extraction speed 1.2 X
Track quality 99.9 %
Test CRC 3E6218AE
Copy CRC 3E6218AE
Track not present in AccurateRip database
Copy OK

Track 2

Filename C:\Users\Ian\EAC\02 - Josquin Desprez - Missa La sol fa re mi- Crucifixus - J. Desprez.wav

Peak level 96.7 %
Extraction speed 1.9 X
Track quality 100.0 %
Test CRC BE1202C5
Copy CRC BE1202C5
Track not present in AccurateRip database
Copy OK

Track 3

Filename C:\Users\Ian\EAC\03 - Josquin Desprez - Missa La sol fa re mi- Agnus Dei - J. Desprez.wav

Peak level 47.9 %
Extraction speed 2.2 X
Track quality 100.0 %
Test CRC 493ADE10
Copy CRC 493ADE10
Track not present in AccurateRip database
Copy OK

Track 4

Filename C:\Users\Ian\EAC\04 - Josquin Desprez - Missa Fortuna desperata- Gloria - J. Desprez.wav

Peak level 82.7 %
Extraction speed 2.4 X
Track quality 100.0 %
Test CRC A2BCF877
Copy CRC A2BCF877
Track not present in AccurateRip database
Copy OK

Track 5

Filename C:\Users\Ian\EAC\05 - Josquin Desprez - Missa Fortuna desperata- Sanctus I - J. Desprez.wav

Peak level 30.9 %
Extraction speed 2.3 X
Track quality 100.0 %
Test CRC B4D9EBFB
Copy CRC B4D9EBFB
Track not present in AccurateRip database
Copy OK

Track 6

Filename C:\Users\Ian\EAC\06 - Josquin Desprez - Missa Fortuna desperata- Agnus Dei I - J. Desprez.wav

Peak level 26.8 %
Extraction speed 2.3 X
Track quality 100.0 %
Test CRC 673C4FC0
Copy CRC 673C4FC0
Track not present in AccurateRip database
Copy OK

Track 7

Filename C:\Users\Ian\EAC\07 - Josquin Desprez - Dulcis amica Dei - Da pacem, (a 5) - Gaspar van Weerbeke.wav

Peak level 31.5 %
Extraction speed 2.7 X
Track quality 99.9 %
Test CRC 6E470E22
Copy CRC 6E470E22
Track not present in AccurateRip database
Copy OK

Track 8

Filename C:\Users\Ian\EAC\08 - Josquin Desprez - Ave regina celorum - Gaspar van Weerbeke.wav

Peak level 49.4 %
Extraction speed 2.9 X
Track quality 99.9 %
Test CRC 5B751591
Copy CRC 5B751591
Track not present in AccurateRip database
Copy OK

Track 9

Filename C:\Users\Ian\EAC\09 - Josquin Desprez - Missa Princesse d'amourettes- Agnus Dei - Gaspar van Weerbeke.wav

Peak level 51.9 %
Extraction speed 3.2 X
Track quality 100.0 %
Test CRC 9E3F8714
Copy CRC 9E3F8714
Track not present in AccurateRip database
Copy OK

Track 10

Filename C:\Users\Ian\EAC\10 - Josquin Desprez - Credo, (VatS 51, fol. 187v-190r) - Anonyme.wav

Peak level 56.6 %
Extraction speed 3.5 X
Track quality 100.0 %
Test CRC F776C12D
Copy CRC F776C12D
Track not present in AccurateRip database
Copy OK

Track 11

Filename C:\Users\Ian\EAC\11 - Josquin Desprez - Lucis creator optime - Marbrianus de Orto.wav

Peak level 44.2 %
Extraction speed 3.1 X
Track quality 99.9 %
Test CRC B55B6E7E
Copy CRC B55B6E7E
Track not present in AccurateRip database
Copy OK

Track 12

Filename C:\Users\Ian\EAC\12 - Josquin Desprez - Missa Ad fugam- Gloria - Marbrianus de Orto.wav

Peak level 58.2 %
Extraction speed 3.3 X
Track quality 99.9 %
Test CRC 0DE1F580
Copy CRC 0DE1F580
Track not present in AccurateRip database
Copy OK

Track 13

Filename C:\Users\Ian\EAC\13 - Josquin Desprez - Domine non secundum peccata nostra - Bertrandus Vaqueras.wav

Peak level 33.1 %
Extraction speed 3.8 X
Track quality 100.0 %
Test CRC DE3F856D
Copy CRC DE3F856D
Track not present in AccurateRip database
Copy OK

Track 14

Filename C:\Users\Ian\EAC\14 - Josquin Desprez - Domine non secundum peccata nostra - Josquin Desprez.wav

Peak level 49.2 %
Extraction speed 4.1 X
Track quality 100.0 %
Test CRC D92233B5
Copy CRC D92233B5
Track not present in AccurateRip database
Copy OK


None of the tracks are present in the AccurateRip database

No errors occurred

End of status report

–– CUETools DB Plugin V2.1.3

[CTDB TOCID: fbam5ueAIns0rtl73tGD1c9dQns-] disk not present in database, Submit result: fbam5ueAIns0rtl73tGD1c9dQns- has been uploaded


==== Log checksum DB221F3CCD01A6BA1DEBC1F9180DE689938D1DFBB9C8056AFBDE10F6187B6614 ====
Exact Audio Copy V1.0 beta 3 from 29. August 2011

EAC extraction logfile from 7. June 2013, 19:43

Cut Circle / De Orto and Josquin: Music in the Sistine Chapel around 1490

Used drive : HL-DT-STDVD-RAM GH40L Adapter: 2 ID: 1

Read mode : Secure
Utilize accurate stream : Yes
Defeat audio cache : Yes
Make use of C2 pointers : No

Read offset correction : 667
Overread into Lead-In and Lead-Out : No
Fill up missing offset samples with silence : Yes
Delete leading and trailing silent blocks : No
Null samples used in CRC calculations : Yes
Used interface : Native Win32 interface for Win NT & 2000
Gap handling : Appended to previous track

Used output format : User Defined Encoder
Selected bitrate : 1024 kBit/s
Quality : High
Add ID3 tag : No
Command line compressor : C:\Program Files\Exact Audio Copy\FLAC\FLAC.EXE
Additional command line options : -8 -V -T "ARTIST=%artist%" -T "TITLE=%title%" -T "ALBUM=%albumtitle%" -T "DATE=%year%" -T "TRACKNUMBER=%tracknr%" -T "GENRE=%genre%" -T "COMMENT=%comment%" -T "BAND=%albuminterpret%" -T "ALBUMARTIST=%albuminterpret%" -T "COMPOSER=%composer%" %haslyrics%–tag-from-file=LYRICS="%lyricsfile%"%haslyrics% -T "DISCNUMBER=%cdnumber%" -T "TOTALDISCS=%totalcds%" -T "TOTALTRACKS=%numtracks%" %hascover%–picture="%coverfile%"%hascover% %source% -o %dest%


TOC of the extracted CD

Track | Start | Length | Start sector | End sector
––––––––––––––––––––––––––––-
1 | 0:00.00 | 2:11.45 | 0 | 9869
2 | 2:11.45 | 0:36.59 | 9870 | 12628
3 | 2:48.29 | 4:01.54 | 12629 | 30757
4 | 6:50.08 | 5:52.00 | 30758 | 57157
5 | 12:42.08 | 8:09.28 | 57158 | 93860
6 | 20:51.36 | 6:48.08 | 93861 | 124468
7 | 27:39.44 | 6:55.37 | 124469 | 155630
8 | 34:35.06 | 6:16.73 | 155631 | 183903
9 | 40:52.04 | 1:36.49 | 183904 | 191152
10 | 42:28.53 | 3:55.51 | 191153 | 208828
11 | 46:24.29 | 6:03.08 | 208829 | 236061
12 | 52:27.37 | 7:14.63 | 236062 | 268674
13 | 59:42.25 | 8:06.74 | 268675 | 305198
14 | 67:49.24 | 7:07.06 | 305199 | 337229


Track 1

Filename C:\Users\Ian\EAC\01 - Marbrianus de Orto & Josquin - Il sera par vous - L’homme armé – Du Fay & ''Borton''.wav

Pre-gap length 0:00:02.00

Peak level 57.8 %
Extraction speed 1.6 X
Track quality 100.0 %
Test CRC 948ABE86
Copy CRC 948ABE86
Track not present in AccurateRip database
Copy OK

Track 2

Filename C:\Users\Ian\EAC\02 - Marbrianus de Orto & Josquin - L’homme armé – Anonyme.wav

Peak level 38.2 %
Extraction speed 1.0 X
Track quality 100.0 %
Test CRC 4DA97518
Copy CRC 4DA97518
Track not present in AccurateRip database
Copy OK

Track 3

Filename C:\Users\Ian\EAC\03 - Marbrianus de Orto & Josquin - Missa L’homme armé – Marbrianus de Orto - Kyrie.wav

Peak level 78.1 %
Extraction speed 1.9 X
Track quality 100.0 %
Test CRC 7F044677
Copy CRC 7F044677
Track not present in AccurateRip database
Copy OK

Track 4

Filename C:\Users\Ian\EAC\04 - Marbrianus de Orto & Josquin - Missa L’homme armé – Marbrianus de Orto - Gloria.wav

Peak level 71.6 %
Extraction speed 2.3 X
Track quality 100.0 %
Test CRC 9FB50E6B
Copy CRC 9FB50E6B
Track not present in AccurateRip database
Copy OK

Track 5

Filename C:\Users\Ian\EAC\05 - Marbrianus de Orto & Josquin - Missa L’homme armé – Marbrianus de Orto - Credo.wav

Peak level 54.2 %
Extraction speed 2.4 X
Track quality 99.9 %
Test CRC 65533936
Copy CRC 65533936
Track not present in AccurateRip database
Copy OK

Track 6

Filename C:\Users\Ian\EAC\06 - Marbrianus de Orto & Josquin - Missa L’homme armé – Marbrianus de Orto - Sanctus.wav

Peak level 62.3 %
Extraction speed 2.9 X
Track quality 100.0 %
Test CRC 3B68E1FE
Copy CRC 3B68E1FE
Track not present in AccurateRip database
Copy OK

Track 7

Filename C:\Users\Ian\EAC\07 - Marbrianus de Orto & Josquin - Missa L’homme armé – Marbrianus de Orto - Agnus Dei.wav

Peak level 48.9 %
Extraction speed 3.1 X
Track quality 100.0 %
Test CRC 3C15EA19
Copy CRC 3C15EA19
Track not present in AccurateRip database
Copy OK

Track 8

Filename C:\Users\Ian\EAC\08 - Marbrianus de Orto & Josquin - Ave Maria mater gratie (a 5) – Marbrianus de Orto.wav

Peak level 37.5 %
Extraction speed 3.2 X
Track quality 100.0 %
Test CRC 55BC9019
Copy CRC 55BC9019
Track not present in AccurateRip database
Copy OK

Track 9

Filename C:\Users\Ian\EAC\09 - Marbrianus de Orto & Josquin - Factum est silentium – chant pour saint Michel.wav

Peak level 44.0 %
Extraction speed 2.7 X
Track quality 100.0 %
Test CRC E870B5B4
Copy CRC E870B5B4
Track not present in AccurateRip database
Copy OK

Track 10

Filename C:\Users\Ian\EAC\10 - Marbrianus de Orto & Josquin - Missa L’homme armé super voces musicales – Josquin Desprez - Kyrie.wav

Peak level 52.8 %
Extraction speed 2.8 X
Track quality 99.9 %
Test CRC 0A3E6A01
Copy CRC 0A3E6A01
Track not present in AccurateRip database
Copy OK

Track 11

Filename C:\Users\Ian\EAC\11 - Marbrianus de Orto & Josquin - Missa L’homme armé super voces musicales – Josquin Desprez - Gloria.wav

Peak level 51.6 %
Extraction speed 3.5 X
Track quality 100.0 %
Test CRC 4B81330E
Copy CRC 4B81330E
Track not present in AccurateRip database
Copy OK

Track 12

Filename C:\Users\Ian\EAC\12 - Marbrianus de Orto & Josquin - Missa L’homme armé super voces musicales – Josquin Desprez - Credo.wav

Peak level 72.5 %
Extraction speed 3.7 X
Track quality 100.0 %
Test CRC 74EE6869
Copy CRC 74EE6869
Track not present in AccurateRip database
Copy OK

Track 13

Filename C:\Users\Ian\EAC\13 - Marbrianus de Orto & Josquin - Missa L’homme armé super voces musicales – Josquin Desprez - Sanctus.wav

Peak level 80.6 %
Extraction speed 3.9 X
Track quality 100.0 %
Test CRC 44278901
Copy CRC 44278901
Track not present in AccurateRip database
Copy OK

Track 14

Filename C:\Users\Ian\EAC\14 - Marbrianus de Orto & Josquin - Missa L’homme armé super voces musicales – Josquin Desprez - Agnus Dei.wav

Peak level 71.8 %
Extraction speed 4.1 X
Track quality 100.0 %
Test CRC 301152B8
Copy CRC 301152B8
Track not present in AccurateRip database
Copy OK


None of the tracks are present in the AccurateRip database

No errors occurred

End of status report

–– CUETools DB Plugin V2.1.3

[CTDB TOCID: ruc5HLAmsjPoYpD_Xw8t6Od6_No-] disk not present in database, Submit result: ruc5HLAmsjPoYpD_Xw8t6Od6_No- has been uploaded


==== Log checksum C803C811A6BE248BA4CFC603942D89E4469E92277D74BB1AC9B69FA74156D6B2 ====


Josquin des Prez - Music in the Sistine Chapel around 1490 - Cut Circle (2012) {2CD Set, Musique en Wallonie MEW 1265-1266}



===