Tags
Language
Tags

Cyril Mokaiesh & Giovanni Mirabassi - Naufragés (2015)

Posted By: aasana
Cyril Mokaiesh & Giovanni Mirabassi - Naufragés (2015)

Cyril Mokaiesh & Giovanni Mirabassi - Naufragés (2015)
EAC Rip | FLAC (tracks+.cue+.log) | 37:32 min | 164 MB
French chanson, Pop, Jazz | Label: Sony Music Entertainment

Cyril Mokaiesh et Giovanni Mirabassi partent à la rencontre de grands artistes de la chanson française que la lumière et la postérité n’ont pas choyés comme elles l’auraient dû.]]>Ils chantent Allain Leprest, Daniel Darc, Bernard Dimey, Philippe Léotard, Vladimir Vissotski, Mano Solo, Stéphan Re- ggiani, Pierre Vassiliu, Jehan…

Selon Cyril Mokaiesh, la naissance du projet Naufragés remonte à la découverte de l'album Avanti!, paru en 2000 sur le label Sketch, dans lequel le pianiste de jazz Giovanni Mirabassi recréait des chants révolutionnaires en solo. Connu pour son engagement démontré sur son premier album Du Rouge et des Passions (2011), sorti après une expérience en groupe, le chanteur s'est inspiré de cette démarche pour bâtir un recueil de chansons dédié aux « naufragés de la chanson », dont le nom n'a pas gagné la notoriété qu'ils méritent.

Qui de mieux pour l'accompagner dans cette aventure que le pianiste qui lui a insufflé l'idée ? C'est donc en duo et dans le plus sobre habillage piano-voix que le tandem franco-italien rend hommage aux chers disparus. Tel le clavier aux touches d'ivoire et d'ébène, le jeu délicat de l'un, tout en nuances et douceur, offre un baume apaisant au chant ou à la diction de son équipier, emporté par le souffle de textes fortement réalistes.

Ensemble, ils ramènent à la vie Allain Leprest, dont la métaphore de « Nu » donne son titre à l'album, non loin de « C'est peut-être ». De la confidence à l'éclat, le chanteur s'immerge dans les mots du frère de coeur de Léo Ferré, son père spirituel absent de la liste car déjà statufié. En revanche, Cyril Mokaiesh met à l'honneur Bernard Dimey, l'auteur de « Syracuse » pour Henri Salvador, dont il chantourne la douce mélodie de « J'aimerais tant savoir », comme il réhabilite le magnifique « Poor Lonesome Piéton » de Philippe Léotard ou n'oublie pas d'inclure « Les enfants rouges » de Mano Solo et « Des idiots comme moi » de Daniel Darc.

La « Bonne figure » de Serge Reggiani est également du voyage et glisse avec légèreté sous les doigts de son compatriote de coeur. D'autres, auquel le temps n'a pas encore apporté la juste postérité, bénéficient de cet éclairage sur leur oeuvre. Il est bon de retrouver le trop peu connu « Nous (c'est nous) » de Jehan, l'obscur « Rien ne va plus, rien ne va » de Victor Vyssotski, « Parler aux anges » de Pierre Vassiliu ou « Écoutez, vous ne m'écoutez pas » de Jacques Debronckart, placé en ouverture.

01. Cyril Mokaiesh & Giovanni Mirabassi - Ecoutez, vous ne m'écoutez pas (Jacques Debronckart) (3:39)
02. Cyril Mokaiesh & Giovanni Mirabassi - J'aimerais tant savoir (Jehan) (2:11)
03. Cyril Mokaiesh & Giovanni Mirabassi - Poor lonesome piéton (Philippe Léotard) (3:37)
04. Cyril Mokaiesh & Giovanni Mirabassi - Parler aux anges (Pierre Vassiliu) (4:16)
05. Cyril Mokaiesh & Giovanni Mirabassi - Rien ne va plus, rien ne va plus (Vladimir Vissotski) (2:58)
06. Cyril Mokaiesh & Giovanni Mirabassi - Nu (Allain Leprest) (2:35)
07. Cyril Mokaiesh & Giovanni Mirabassi - Les enfants Rouges (Mano Solo) (3:18)
08. Cyril Mokaiesh & Giovanni Mirabassi - Bonne Figure (Stephan Reggiani) (3:21)
09. Cyril Mokaiesh & Giovanni Mirabassi - Nous (Jacques Debronckart) (3:10)
10. Cyril Mokaiesh & Giovanni Mirabassi - Des idiots comme moi (Daniel Darc) (2:38)
11. Cyril Mokaiesh & Giovanni Mirabassi - C'est peut-être (Allain Leprest) (2:53)
12. Cyril Mokaiesh & Giovanni Mirabassi - Chanson pour terminer (Bernard Dimey) (2:56)

Exact Audio Copy V1.0 beta 3 from 29. August 2011

EAC extraction logfile from 18. October 2015, 14:21

Cyril Mokaiesh & Giovanni Mirabassi / Naufragés

Used drive : ASUS DRW-2014L1T Adapter: 3 ID: 0

Read mode : Secure
Utilize accurate stream : Yes
Defeat audio cache : Yes
Make use of C2 pointers : No

Read offset correction : 6
Overread into Lead-In and Lead-Out : No
Fill up missing offset samples with silence : Yes
Delete leading and trailing silent blocks : No
Null samples used in CRC calculations : Yes
Used interface : Native Win32 interface for Win NT & 2000
Gap handling : Appended to previous track

Used output format : User Defined Encoder
Selected bitrate : 1024 kBit/s
Quality : High
Add ID3 tag : No
Command line compressor : C:\Program Files (x86)\Exact Audio Copy\Flac\flac.exe
Additional command line options : -8 -V -T "ARTIST=%artist%" -T "TITLE=%title%" -T "ALBUM=%albumtitle%" -T "DATE=%year%" -T "TRACKNUMBER=%tracknr%" -T "GENRE=%genre%" -T "PERFORMER=%albuminterpret%" -T "COMPOSER=%composer%" %haslyrics%–tag-from-file=LYRICS="%lyricsfile%"%haslyrics% -T "ALBUMARTIST=%albumartist%" -T "DISCNUMBER=%cdnumber%" -T "TOTALDISCS=%totalcds%" -T "TOTALTRACKS=%numtracks%" -T "COMMENT=%comment%" %source% -o %dest%


TOC of the extracted CD

Track | Start | Length | Start sector | End sector
––––––––––––––––––––––––––––-
1 | 0:00.00 | 3:39.31 | 0 | 16455
2 | 3:39.31 | 2:10.55 | 16456 | 26260
3 | 5:50.11 | 3:37.32 | 26261 | 42567
4 | 9:27.43 | 4:15.65 | 42568 | 61757
5 | 13:43.33 | 2:58.09 | 61758 | 75116
6 | 16:41.42 | 2:35.12 | 75117 | 86753
7 | 19:16.54 | 3:17.51 | 86754 | 101579
8 | 22:34.30 | 3:20.57 | 101580 | 116636
9 | 25:55.12 | 3:10.14 | 116637 | 130900
10 | 29:05.26 | 2:37.71 | 130901 | 142746
11 | 31:43.22 | 2:52.60 | 142747 | 155706
12 | 34:36.07 | 2:56.03 | 155707 | 168909


Track 1

Filename D:\Telechargements\CDRip Lucas\Cyril Mokaiesh & Giovanni Mirabassi - Naufragés (2015) [FLAC]\01 - Ecoutez, vous ne m'écoutez pas (Jacques Debronckart).wav

Pre-gap length 0:00:02.00

Peak level 100.0 %
Extraction speed 4.8 X
Track quality 100.0 %
Test CRC 126D89F5
Copy CRC 126D89F5
Track not present in AccurateRip database
Copy OK

Track 2

Filename D:\Telechargements\CDRip Lucas\Cyril Mokaiesh & Giovanni Mirabassi - Naufragés (2015) [FLAC]\02 - J'aimerais tant savoir (Jehan).wav

Pre-gap length 0:00:01.98

Peak level 100.0 %
Extraction speed 4.7 X
Track quality 100.0 %
Test CRC 8EA20247
Copy CRC 8EA20247
Track not present in AccurateRip database
Copy OK

Track 3

Filename D:\Telechargements\CDRip Lucas\Cyril Mokaiesh & Giovanni Mirabassi - Naufragés (2015) [FLAC]\03 - Poor lonesome piéton (Philippe Léotard).wav

Pre-gap length 0:00:01.98

Peak level 100.0 %
Extraction speed 4.2 X
Track quality 99.9 %
Test CRC 9F4D8EEE
Copy CRC 9F4D8EEE
Track not present in AccurateRip database
Copy OK

Track 4

Filename D:\Telechargements\CDRip Lucas\Cyril Mokaiesh & Giovanni Mirabassi - Naufragés (2015) [FLAC]\04 - Parler aux anges (Pierre Vassiliu).wav

Pre-gap length 0:00:01.98

Peak level 84.3 %
Extraction speed 6.0 X
Track quality 100.0 %
Test CRC 98CFD040
Copy CRC 98CFD040
Track not present in AccurateRip database
Copy OK

Track 5

Filename D:\Telechargements\CDRip Lucas\Cyril Mokaiesh & Giovanni Mirabassi - Naufragés (2015) [FLAC]\05 - Rien ne va plus, rien ne va plus (Vladimir Vissotski).wav

Pre-gap length 0:00:01.98

Peak level 100.0 %
Extraction speed 5.7 X
Track quality 100.0 %
Test CRC 2A41BB39
Copy CRC 2A41BB39
Track not present in AccurateRip database
Copy OK

Track 6

Filename D:\Telechargements\CDRip Lucas\Cyril Mokaiesh & Giovanni Mirabassi - Naufragés (2015) [FLAC]\06 - Nu (Allain Leprest).wav

Pre-gap length 0:00:01.98

Peak level 97.4 %
Extraction speed 6.1 X
Track quality 100.0 %
Test CRC 80988BE5
Copy CRC 80988BE5
Track not present in AccurateRip database
Copy OK

Track 7

Filename D:\Telechargements\CDRip Lucas\Cyril Mokaiesh & Giovanni Mirabassi - Naufragés (2015) [FLAC]\07 - Les enfants Rouges (Mano Solo).wav

Pre-gap length 0:00:01.98

Peak level 100.0 %
Extraction speed 6.4 X
Track quality 100.0 %
Test CRC 6E1A2D13
Copy CRC 6E1A2D13
Track not present in AccurateRip database
Copy OK

Track 8

Filename D:\Telechargements\CDRip Lucas\Cyril Mokaiesh & Giovanni Mirabassi - Naufragés (2015) [FLAC]\08 - Bonne Figure (Stephan Reggiani).wav

Pre-gap length 0:00:01.98

Peak level 100.0 %
Extraction speed 5.8 X
Track quality 100.0 %
Test CRC 0EB563DA
Copy CRC 0EB563DA
Track not present in AccurateRip database
Copy OK

Track 9

Filename D:\Telechargements\CDRip Lucas\Cyril Mokaiesh & Giovanni Mirabassi - Naufragés (2015) [FLAC]\09 - Nous (Jacques Debronckart).wav

Pre-gap length 0:00:01.98

Peak level 86.6 %
Extraction speed 6.2 X
Track quality 100.0 %
Test CRC 73C61FBD
Copy CRC 73C61FBD
Track not present in AccurateRip database
Copy OK

Track 10

Filename D:\Telechargements\CDRip Lucas\Cyril Mokaiesh & Giovanni Mirabassi - Naufragés (2015) [FLAC]\10 - Des idiots comme moi (Daniel Darc).wav

Pre-gap length 0:00:01.98

Peak level 68.3 %
Extraction speed 5.7 X
Track quality 100.0 %
Test CRC DF641E55
Copy CRC DF641E55
Track not present in AccurateRip database
Copy OK

Track 11

Filename D:\Telechargements\CDRip Lucas\Cyril Mokaiesh & Giovanni Mirabassi - Naufragés (2015) [FLAC]\11 - C'est peut-être (Allain Leprest).wav

Pre-gap length 0:00:01.98

Peak level 100.0 %
Extraction speed 7.1 X
Track quality 100.0 %
Test CRC 5907C64F
Copy CRC 5907C64F
Track not present in AccurateRip database
Copy OK

Track 12

Filename D:\Telechargements\CDRip Lucas\Cyril Mokaiesh & Giovanni Mirabassi - Naufragés (2015) [FLAC]\12 - Chanson pour terminer (Bernard Dimey).wav

Pre-gap length 0:00:01.98

Peak level 88.5 %
Extraction speed 5.1 X
Track quality 100.0 %
Test CRC B1B1868B
Copy CRC B1B1868B
Track not present in AccurateRip database
Copy OK


None of the tracks are present in the AccurateRip database

No errors occurred

End of status report

–– CUETools DB Plugin V2.1.3

[CTDB TOCID: FuZNA4cyF9JxpIIJfdnoRClzTuc-] found, Submit result: FuZNA4cyF9JxpIIJfdnoRClzTuc- has been confirmed
[206b9971] (1/1) Accurately ripped


==== Log checksum DA50F3647A7B517FC0FEB1803281CEE71ADC3F2540322C6154F5954F082B4D0D ====