Subcategories

Dakota Staton - Live at Milestones (2007)

Posted By: Domestos
Dakota Staton - Live at Milestones (2007)

Dakota Staton - Live at Milestones (2007)
XLD Rip | FLAC (tracks+.cue, log) ~ 177.36 Mb | 38:07 | Covers
Vocal Jazz | Country: USA | Label: Caffe Jazz - CJCD-6100

Dakota Staton Gained a strong reputation as a soulful jazz singer early in her career. She had retained her popularity for decades. Her biggest hit was "The Late Late Show". … Now this great CD recorded "Live" at Milestones in Buffalo N.Y. November 20,1986 This 14 track set includes "My Funny Valentine" - "Summertime" and a her version of "Broadway" now from Caffe Jazz.



Track List:
01. Chestnut Street (2:50)
02. Girl Talk (2:22)
03. Ain't No Use (3:12)
04. Broadway (2:24)
05. I Could Have Told You So (2:43)
06. Play Your Hand (3:15)
07. My Funny Valentine (2:34)
08. A Girl Like Her (2:14)
09. No Man (2:22)
10. Give Me the Simple Life (2:11)
11. Summertime (2:26)
12. Cry Me a River (2:56)
13. What Do You See in Her (2:59)
14. Fat Daddy (2:34)
15. Farewell Theme from Milestones (1:05)

Recorded live at Milestones, Buffalo, NY on November 20, 1986.

Dakota Staton - Live at Milestones (2007)

X Lossless Decoder version 20191004 (152.0)

XLD extraction logfile from 2020-10-28 18:21:18 -0400

Dakota Staton / Live At Milestones

Used drive : MATSHITA DVD-R UJ-898 (revision HE13)
Media type : Pressed CD

Ripper mode : XLD Secure Ripper
Disable audio cache : OK for the drive with a cache less than 1375KiB
Make use of C2 pointers : NO
Read offset correction : 102
Max retry count : 100
Gap status : Analyzed, Appended (except HTOA)

TOC of the extracted CD
Track | Start | Length | Start sector | End sector
––––––––––––––––––––––––––––-
1 | 00:00:00 | 02:49:40 | 0 | 12714
2 | 02:49:40 | 02:22:10 | 12715 | 23374
3 | 05:11:50 | 03:12:33 | 23375 | 37807
4 | 08:24:08 | 02:24:06 | 37808 | 48613
5 | 10:48:14 | 02:42:71 | 48614 | 60834
6 | 13:31:10 | 03:15:17 | 60835 | 75476
7 | 16:46:27 | 02:33:67 | 75477 | 87018
8 | 19:20:19 | 02:14:21 | 87019 | 97089
9 | 21:34:40 | 02:21:73 | 97090 | 107737
10 | 23:56:38 | 02:10:65 | 107738 | 117552
11 | 26:07:28 | 02:26:03 | 117553 | 128505
12 | 28:33:31 | 02:56:26 | 128506 | 141731
13 | 31:29:57 | 02:58:66 | 141732 | 155147
14 | 34:28:48 | 02:34:10 | 155148 | 166707
15 | 37:02:58 | 01:04:67 | 166708 | 171574

AccurateRip Summary (DiscID: 0015d955-00f610a0-b208ef0f)
Track 01 : OK (v2, confidence 1/1)
Track 02 : OK (v2, confidence 1/1)
Track 03 : OK (v2, confidence 1/1)
Track 04 : OK (v2, confidence 1/1)
Track 05 : OK (v2, confidence 1/1)
Track 06 : OK (v2, confidence 1/1)
Track 07 : OK (v2, confidence 1/1)
Track 08 : OK (v2, confidence 1/1)
Track 09 : OK (v2, confidence 1/1)
Track 10 : OK (v2, confidence 1/1)
Track 11 : OK (v2, confidence 1/1)
Track 12 : OK (v2, confidence 1/1)
Track 13 : OK (v2, confidence 1/1)
Track 14 : OK (v2, confidence 1/1)
Track 15 : OK (v2, confidence 1/1)
->All tracks accurately ripped.

All Tracks
Album gain : -2.92 dB
Peak : 0.977966
Statistics
Read error : 0
Jitter error (maybe fixed) : 0
Retry sector count : 0
Damaged sector count : 0

Track 01
Filename : /Users/Rips/Dakota Staton - Live At Milestones (2007) [FLAC]/01 Chestnut Street.flac
Pre-gap length : 00:02:00

Track gain : -1.00 dB
Peak : 0.944641
CRC32 hash (test run) : AB33A78B
CRC32 hash : AB33A78B
CRC32 hash (skip zero) : 86E0CFC4
AccurateRip v1 signature : 58F079C7
AccurateRip v2 signature : 283C813C
->Accurately ripped (v2, confidence 1/1)
Statistics
Read error : 0
Jitter error (maybe fixed) : 0
Retry sector count : 0
Damaged sector count : 0

Track 02
Filename : /Users/Rips/Dakota Staton - Live At Milestones (2007) [FLAC]/02 Girl Talk.flac

Track gain : 0.93 dB
Peak : 0.701263
CRC32 hash (test run) : 46E9F1A7
CRC32 hash : 46E9F1A7
CRC32 hash (skip zero) : D540B369
AccurateRip v1 signature : DAF1A55F
AccurateRip v2 signature : 80D7B084
->Accurately ripped (v2, confidence 1/1)
Statistics
Read error : 0
Jitter error (maybe fixed) : 0
Retry sector count : 0
Damaged sector count : 0

Track 03
Filename : /Users/Rips/Dakota Staton - Live At Milestones (2007) [FLAC]/03 Ain't No Use.flac

Track gain : 0.04 dB
Peak : 0.977112
CRC32 hash (test run) : 70A7063C
CRC32 hash : 70A7063C
CRC32 hash (skip zero) : E39628BE
AccurateRip v1 signature : 12518756
AccurateRip v2 signature : AEF6ADF1
->Accurately ripped (v2, confidence 1/1)
Statistics
Read error : 0
Jitter error (maybe fixed) : 0
Retry sector count : 0
Damaged sector count : 0

Track 04
Filename : /Users/Rips/Dakota Staton - Live At Milestones (2007) [FLAC]/04 Broadway.flac

Track gain : -1.01 dB
Peak : 0.977234
CRC32 hash (test run) : AB98422C
CRC32 hash : AB98422C
CRC32 hash (skip zero) : 2DF7824B
AccurateRip v1 signature : 9058303F
AccurateRip v2 signature : 4B3975B8
->Accurately ripped (v2, confidence 1/1)
Statistics
Read error : 0
Jitter error (maybe fixed) : 0
Retry sector count : 0
Damaged sector count : 0

Track 05
Filename : /Users/Rips/Dakota Staton - Live At Milestones (2007) [FLAC]/05 I Could Have Told You So.flac

Track gain : -2.18 dB
Peak : 0.977295
CRC32 hash (test run) : 4DBAEB46
CRC32 hash : 4DBAEB46
CRC32 hash (skip zero) : D30F4E76
AccurateRip v1 signature : 045671AF
AccurateRip v2 signature : A5C10445
->Accurately ripped (v2, confidence 1/1)
Statistics
Read error : 0
Jitter error (maybe fixed) : 0
Retry sector count : 0
Damaged sector count : 0

Track 06
Filename : /Users/Rips/Dakota Staton - Live At Milestones (2007) [FLAC]/06 Play Your Hand.flac

Track gain : -2.33 dB
Peak : 0.977264
CRC32 hash (test run) : 31CE226B
CRC32 hash : 31CE226B
CRC32 hash (skip zero) : 5FFCB93E
AccurateRip v1 signature : BC7CE169
AccurateRip v2 signature : D943D4A4
->Accurately ripped (v2, confidence 1/1)
Statistics
Read error : 0
Jitter error (maybe fixed) : 0
Retry sector count : 0
Damaged sector count : 0

Track 07
Filename : /Users/Rips/Dakota Staton - Live At Milestones (2007) [FLAC]/07 My Funny Valentine.flac

Track gain : -4.15 dB
Peak : 0.977356
CRC32 hash (test run) : BF98D5C5
CRC32 hash : BF98D5C5
CRC32 hash (skip zero) : 50AFE39A
AccurateRip v1 signature : A0F0CC0F
AccurateRip v2 signature : A73F0D4D
->Accurately ripped (v2, confidence 1/1)
Statistics
Read error : 0
Jitter error (maybe fixed) : 0
Retry sector count : 0
Damaged sector count : 0

Track 08
Filename : /Users/Rips/Dakota Staton - Live At Milestones (2007) [FLAC]/08 A Girl Like Her.flac

Track gain : -5.31 dB
Peak : 0.977325
CRC32 hash (test run) : AFB76011
CRC32 hash : AFB76011
CRC32 hash (skip zero) : F9A574F5
AccurateRip v1 signature : 4532046F
AccurateRip v2 signature : 39567D08
->Accurately ripped (v2, confidence 1/1)
Statistics
Read error : 0
Jitter error (maybe fixed) : 0
Retry sector count : 0
Damaged sector count : 0

Track 09
Filename : /Users/Rips/Dakota Staton - Live At Milestones (2007) [FLAC]/09 No Man.flac

Track gain : -4.13 dB
Peak : 0.977905
CRC32 hash (test run) : 8CCDC50B
CRC32 hash : 8CCDC50B
CRC32 hash (skip zero) : F57A1B11
AccurateRip v1 signature : 9FC85C5E
AccurateRip v2 signature : 60B7A288
->Accurately ripped (v2, confidence 1/1)
Statistics
Read error : 0
Jitter error (maybe fixed) : 0
Retry sector count : 0
Damaged sector count : 0

Track 10
Filename : /Users/Rips/Dakota Staton - Live At Milestones (2007) [FLAC]/10 Give Me the Simple Life.flac

Track gain : -5.18 dB
Peak : 0.977448
CRC32 hash (test run) : 66C3C99C
CRC32 hash : 66C3C99C
CRC32 hash (skip zero) : 0ECB1ABB
AccurateRip v1 signature : F66B941B
AccurateRip v2 signature : 3B36C8C7
->Accurately ripped (v2, confidence 1/1)
Statistics
Read error : 0
Jitter error (maybe fixed) : 0
Retry sector count : 0
Damaged sector count : 0

Track 11
Filename : /Users/Rips/Dakota Staton - Live At Milestones (2007) [FLAC]/11 Summertime.flac

Track gain : -3.11 dB
Peak : 0.977234
CRC32 hash (test run) : 432CE551
CRC32 hash : 432CE551
CRC32 hash (skip zero) : F5963264
AccurateRip v1 signature : D20176C9
AccurateRip v2 signature : FD29FCD4
->Accurately ripped (v2, confidence 1/1)
Statistics
Read error : 0
Jitter error (maybe fixed) : 0
Retry sector count : 0
Damaged sector count : 0

Track 12
Filename : /Users/Rips/Dakota Staton - Live At Milestones (2007) [FLAC]/12 Cry Me a River.flac

Track gain : -3.05 dB
Peak : 0.977234
CRC32 hash (test run) : 71357CFF
CRC32 hash : 71357CFF
CRC32 hash (skip zero) : 5E738795
AccurateRip v1 signature : 513CA311
AccurateRip v2 signature : 151CE6A1
->Accurately ripped (v2, confidence 1/1)
Statistics
Read error : 0
Jitter error (maybe fixed) : 0
Retry sector count : 0
Damaged sector count : 0

Track 13
Filename : /Users/Rips/Dakota Staton - Live At Milestones (2007) [FLAC]/13 What Do You See In Her.flac

Track gain : -2.94 dB
Peak : 0.977966
CRC32 hash (test run) : 94F0FE8E
CRC32 hash : 94F0FE8E
CRC32 hash (skip zero) : C79BB189
AccurateRip v1 signature : 731015E4
AccurateRip v2 signature : B8E38C2F
->Accurately ripped (v2, confidence 1/1)
Statistics
Read error : 0
Jitter error (maybe fixed) : 0
Retry sector count : 0
Damaged sector count : 0

Track 14
Filename : /Users/Rips/Dakota Staton - Live At Milestones (2007) [FLAC]/14 Fat Daddy.flac

Track gain : -3.83 dB
Peak : 0.977570
CRC32 hash (test run) : F79F189C
CRC32 hash : F79F189C
CRC32 hash (skip zero) : 58CEAD9D
AccurateRip v1 signature : FBE1F357
AccurateRip v2 signature : 02EFF8D6
->Accurately ripped (v2, confidence 1/1)
Statistics
Read error : 0
Jitter error (maybe fixed) : 0
Retry sector count : 0
Damaged sector count : 0

Track 15
Filename : /Users/Rips/Dakota Staton - Live At Milestones (2007) [FLAC]/15 Closing Good-Bye.flac

Track gain : -2.61 dB
Peak : 0.977203
CRC32 hash (test run) : EB875780
CRC32 hash : EB875780
CRC32 hash (skip zero) : 69EA724A
AccurateRip v1 signature : F511F325
AccurateRip v2 signature : 756FF508
->Accurately ripped (v2, confidence 1/1)
Statistics
Read error : 0
Jitter error (maybe fixed) : 0
Retry sector count : 0
Damaged sector count : 0

No errors occurred

End of status report

––-BEGIN XLD SIGNATURE––-
l21zuWXf40uOxTjv9mvZUe.VpfaUxyppXAASbOe4KLjbdtTmTr8e8d91GDWwhQxcwhAJ1K199E1g5VfnbfVOxQfHpwwZaYl073bk_sy
––-END XLD SIGNATURE––-

All thanks go to the jedson

More Music in My Blog
Follow My RSS Channel