Tags
Language
Tags

Daniel Norgren - Wooh Dang (2019)

Posted By: delpotro
Daniel Norgren - Wooh Dang (2019)

Daniel Norgren - Wooh Dang (2019)
EAC Rip | FLAC (tracks+log+.cue) - 213 Mb | MP3 CBR 320 kbps - 87 Mb | 00:37:56
Folk, Bedroom Pop, Blues, Singer-Songwriter | Label: Superpuma Records

For the past dozen or so years, Swedish singer-songwriter Daniel Norgren has been releasing albums full of romantically-rendered Southern folk interpretations for European audiences. Wooh Dang, his sparse eighth album, is the first to be released in the United States, and will likely help establish the 35 year-old singer-songwriter to an Americana scene that his music fits neatly into. Over ten songs, Norgren offers a survey course of sorts in 20th century American roots music: “Dandelion Time” is a Southern blues indebted to Howlin Wolf; “The Power” draws from Smokey Robinson’s pop balladry; “Let Love Run the Game,” the album’s shining centerpiece, is a finely-tuned classic soul pastiche by way of Muscle Shoals. There’s an innocence and intensity to Norgren’s reimagination of the American South, a tendency towards straightforward appropriation countered by the careful studiousness with which Norgren approaches his source material.

But the singer-songwriter’s latest is also much more complex and multi-layered than any sort of mere blues revivalist project. The album doesn’t open so much as simply begin, with Norgren’s noodling around on a three minute instrumental soundscape (“Blue Sky Moon”) before creeping into a moody, six-and-a-half minute ballad that finds Norgren half-mumbling over brooding piano chords (“The Flow”).

That space–between Norgren’s darker, more experimental tendencies and his fresh-faced roots romanticism–provides the guiding tension in Wooh-Dang, an album that surprises, excites, perplexes and thrills over the course of its 38 minutes. “So Glad,” a four-minute meditation on the song’s titular sentiment, is a zen meditation that refuses to abandon or build upon its repetitive folk structure. It’s a gesture that frustrates as much as it challenges in its failure to deliver a building pop climax. But for Norgren, a singer who’s at his best when he’s deconstructing American folk idioms, that just may be the point. - Rollingstone
Tracklist:
1. Blue Sky Moon (03:28)
2. The Flow (06:31)
3. Dandelion Time (03:48)
4. The Power (04:28)
5. Rolling Rolling Rolling (04:06)
6. So Glad (03:54)
7. Let Love Run The Game (03:25)
8. The Day That´s Just Begun (03:27)
9. When I Hold You In My Arms (03:27)
10. Wooh Dang (01:22)

Exact Audio Copy V1.3 from 2. September 2016

EAC extraction logfile from 2. July 2019, 2:05

Daniel Norgren / Wooh Dang

Used drive : HL-DT-STDVD-RAM GH22LS30 Adapter: 1 ID: 0

Read mode : Secure
Utilize accurate stream : Yes
Defeat audio cache : Yes
Make use of C2 pointers : No

Read offset correction : 102
Overread into Lead-In and Lead-Out : No
Fill up missing offset samples with silence : Yes
Delete leading and trailing silent blocks : No
Null samples used in CRC calculations : Yes
Used interface : Native Win32 interface for Win NT & 2000
Gap handling : Appended to previous track

Used output format : User Defined Encoder
Selected bitrate : 1024 kBit/s
Quality : High
Add ID3 tag : No
Command line compressor : C:\Program Files (x86)\Exact Audio Copy\Flac\flac.exe
Additional command line options : -8 -e -p -V -T "ARTIST=%artist%" -T "TITLE=%title%" -T "ALBUM=%albumtitle%" -T "DATE=%year%" -T "TRACKNUMBER=%tracknr%" -T "GENRE=%genre%" -T "PERFORMER=%albuminterpret%" -T "COMPOSER=%composer%" %haslyrics%–tag-from-file=LYRICS="%lyricsfile%"%haslyrics% -T "ALBUMARTIST=%albumartist%" -T "DISCNUMBER=%cdnumber%" -T "TOTALDISCS=%totalcds%" -T "TOTALTRACKS=%numtracks%" -T "COMMENT=%comment%" %source% -o %dest%


TOC of the extracted CD

Track | Start | Length | Start sector | End sector
––––––––––––––––––––––––––––-
1 | 0:00.00 | 3:28.09 | 0 | 15608
2 | 3:28.09 | 6:30.71 | 15609 | 44929
3 | 9:59.05 | 3:48.26 | 44930 | 62055
4 | 13:47.31 | 4:28.02 | 62056 | 82157
5 | 18:15.33 | 4:06.22 | 82158 | 100629
6 | 22:21.55 | 3:53.48 | 100630 | 118152
7 | 26:15.28 | 3:24.61 | 118153 | 133513
8 | 29:40.14 | 3:27.00 | 133514 | 149038
9 | 33:07.14 | 3:27.35 | 149039 | 164598
10 | 36:34.49 | 1:21.61 | 164599 | 170734


Track 1

Filename E:\Daniel Norgren - Wooh Dang (2019) [FLAC]\01 - Blue Sky Moon.wav

Pre-gap length 0:00:02.00

Peak level 89.8 %
Extraction speed 1.3 X
Track quality 99.9 %
Test CRC 0CCC60AF
Copy CRC 0CCC60AF
Accurately ripped (confidence 1) [D1890DAD] (AR v2)
Copy OK

Track 2

Filename E:\Daniel Norgren - Wooh Dang (2019) [FLAC]\02 - The Flow.wav

Peak level 98.8 %
Extraction speed 1.8 X
Track quality 100.0 %
Test CRC 314AE1BA
Copy CRC 314AE1BA
Accurately ripped (confidence 1) [1BFE1202] (AR v2)
Copy OK

Track 3

Filename E:\Daniel Norgren - Wooh Dang (2019) [FLAC]\03 - Dandelion Time.wav

Pre-gap length 0:00:02.45

Peak level 99.1 %
Extraction speed 1.9 X
Track quality 100.0 %
Test CRC DFF89C5D
Copy CRC DFF89C5D
Accurately ripped (confidence 1) [A925C4DE] (AR v2)
Copy OK

Track 4

Filename E:\Daniel Norgren - Wooh Dang (2019) [FLAC]\04 - The Power.wav

Pre-gap length 0:00:01.60

Peak level 99.6 %
Extraction speed 2.1 X
Track quality 100.0 %
Test CRC 520E4398
Copy CRC 520E4398
Accurately ripped (confidence 1) [EA323094] (AR v2)
Copy OK

Track 5

Filename E:\Daniel Norgren - Wooh Dang (2019) [FLAC]\05 - Rolling Rolling Rolling.wav

Pre-gap length 0:00:01.33

Peak level 99.6 %
Extraction speed 2.0 X
Track quality 99.9 %
Test CRC 5360CD65
Copy CRC 5360CD65
Accurately ripped (confidence 1) [83D4564B] (AR v2)
Copy OK

Track 6

Filename E:\Daniel Norgren - Wooh Dang (2019) [FLAC]\06 - So Glad.wav

Pre-gap length 0:00:04.28

Peak level 99.2 %
Extraction speed 2.3 X
Track quality 100.0 %
Test CRC A5C80614
Copy CRC A5C80614
Accurately ripped (confidence 1) [86FA66A1] (AR v2)
Copy OK

Track 7

Filename E:\Daniel Norgren - Wooh Dang (2019) [FLAC]\07 - Let Love Run the Game.wav

Pre-gap length 0:00:02.46

Peak level 99.6 %
Extraction speed 2.1 X
Track quality 99.9 %
Test CRC F20F8F95
Copy CRC F20F8F95
Accurately ripped (confidence 1) [6F3869B8] (AR v2)
Copy OK

Track 8

Filename E:\Daniel Norgren - Wooh Dang (2019) [FLAC]\08 - The Day That's Just Begun.wav

Pre-gap length 0:00:02.18

Peak level 99.4 %
Extraction speed 2.5 X
Track quality 100.0 %
Test CRC 5EBA0BED
Copy CRC 5EBA0BED
Accurately ripped (confidence 1) [DA33D067] (AR v2)
Copy OK

Track 9

Filename E:\Daniel Norgren - Wooh Dang (2019) [FLAC]\09 - When I Hold You in My Arms.wav

Pre-gap length 0:00:04.29

Peak level 99.1 %
Extraction speed 2.2 X
Track quality 99.9 %
Test CRC FE75E882
Copy CRC FE75E882
Accurately ripped (confidence 1) [ACB66B86] (AR v2)
Copy OK

Track 10

Filename E:\Daniel Norgren - Wooh Dang (2019) [FLAC]\10 - Wooh Dang.wav

Pre-gap length 0:00:01.63

Peak level 98.8 %
Extraction speed 2.0 X
Track quality 100.0 %
Test CRC 81AA8A28
Copy CRC 81AA8A28
Accurately ripped (confidence 1) [FEBAA4B2] (AR v2)
Copy OK


All tracks accurately ripped

No errors occurred

End of status report

–– CUETools DB Plugin V2.1.6

[CTDB TOCID: WrHzezyUzfOjhW7zpeIbDovuRlc-] found
Submit result: WrHzezyUzfOjhW7zpeIbDovuRlc- has been confirmed
Track | CTDB Status
1 | (6/6) Accurately ripped
2 | (6/6) Accurately ripped
3 | (6/6) Accurately ripped
4 | (6/6) Accurately ripped
5 | (6/6) Accurately ripped
6 | (6/6) Accurately ripped
7 | (6/6) Accurately ripped
8 | (6/6) Accurately ripped
9 | (6/6) Accurately ripped
10 | (6/6) Accurately ripped


==== Log checksum C2B86FE255A77DD6EE7B945B71C29E8682ECA8E187628F30E44FF16789DAABB4 ====

Thanks to the Original ripper DelayDonnie !