Tags
Language
Tags

Dario Congedo Trio - Don't Quit (2020)

Posted By: Domestos
Dario Congedo Trio - Don't Quit (2020)

Dario Congedo Trio - Don't Quit (2020)
EAC Rip | FLAC (tracks+.cue, log) ~ 214.33 Mb + 20.82 Mb (Scans) | 40:37
Post-Bop, Contemporary Jazz | Country: Italy | Label: Workin' Label - WL 36

"Don't Quit" is a totally instrumental album that moves between contemporary European jazz and avant-garde. Eight original songs, composed and arranged by Dario Congedo, played in a trio together with Dorian Dumont and Federico Pecoraro.



Track List:
01. Don't Quit (Congedo) - 4:43
02. Never Procrastinate Again (Congedo) - 6:23
03. Precious Light (Congedo) - 6:16
04. The Other Way (Congedo) - 4:35
05. Contradictions (Congedo) - 5:01
06. Note a Margine (Congedo) - 7:16
07. Where Nothing Was There Before (Congedo) - 3:18
08. Open Space (Congedo) - 3:05

Dorian Dumont - piano
Dario Congedo - drums, percussion
Federico Pecoraro - electric bass

Recorded at Sudestudio, Guagnano (Le) in January 2019.

Dario Congedo Trio - Don't Quit (2020)

Exact Audio Copy V1.6 from 23. October 2020

EAC extraction logfile from 2. November 2021, 10:57

Dario Congedo Trio / Don't Quit

Used drive : PLEXTOR PX-891SAF Adapter: 1 ID: 0

Read mode : Secure
Utilize accurate stream : Yes
Defeat audio cache : Yes
Make use of C2 pointers : No

Read offset correction : 6
Overread into Lead-In and Lead-Out : No
Fill up missing offset samples with silence : Yes
Delete leading and trailing silent blocks : No
Null samples used in CRC calculations : Yes
Used interface : Native Win32 interface for Win NT & 2000
Gap handling : Appended to previous track

Used output format : User Defined Encoder
Selected bitrate : 768 kBit/s
Quality : High
Add ID3 tag : No
Command line compressor : C:\Program Files (x86)\Exact Audio Copy\Flac\flac.exe
Additional command line options : -8 -V -T "ARTIST=%artist%" -T "TITLE=%title%" -T "ALBUM=%albumtitle%" -T "DATE=%year%" -T "TRACKNUMBER=%tracknr%" -T "TOTALTRACKS=%numtracks%" -T "GENRE=%genre%" -T "ALBUMARTIST=%albumartist%" -T "ALBUM ARTIST=%albumartist%" -T "COMMENT=EAC Secure Mode, Test & Copy, AccurateRip, FLAC -8" %source%


TOC of the extracted CD

Track | Start | Length | Start sector | End sector
––––––––––––––––––––––––––––-
1 | 0:00.00 | 4:43.26 | 0 | 21250
2 | 4:43.26 | 6:22.68 | 21251 | 49968
3 | 11:06.19 | 6:16.21 | 49969 | 78189
4 | 17:22.40 | 4:34.46 | 78190 | 98785
5 | 21:57.11 | 5:00.38 | 98786 | 121323
6 | 26:57.49 | 7:16.36 | 121324 | 154059
7 | 34:14.10 | 3:17.56 | 154060 | 168890
8 | 37:31.66 | 3:05.27 | 168891 | 182792


Track 1

Filename C:\temp\01 - Don't Quit.wav

Pre-gap length 0:00:02.00

Peak level 98.7 %
Extraction speed 5.2 X
Track quality 100.0 %
Test CRC 380FA352
Copy CRC 380FA352
Track not present in AccurateRip database
Copy OK

Track 2

Filename C:\temp\02 - Never Procastinate Again.wav

Pre-gap length 0:00:02.00

Peak level 98.8 %
Extraction speed 6.2 X
Track quality 100.0 %
Test CRC B556CD63
Copy CRC B556CD63
Track not present in AccurateRip database
Copy OK

Track 3

Filename C:\temp\03 - Precious Light.wav

Peak level 98.7 %
Extraction speed 6.9 X
Track quality 100.0 %
Test CRC 89A6DA8C
Copy CRC 89A6DA8C
Track not present in AccurateRip database
Copy OK

Track 4

Filename C:\temp\04 - The Other Way.wav

Pre-gap length 0:00:02.00

Peak level 98.8 %
Extraction speed 7.3 X
Track quality 100.0 %
Test CRC 51FFDA47
Copy CRC 51FFDA47
Track not present in AccurateRip database
Copy OK

Track 5

Filename C:\temp\05 - Contradictions.wav

Pre-gap length 0:00:02.00

Peak level 91.7 %
Extraction speed 7.8 X
Track quality 100.0 %
Test CRC 5D2473FD
Copy CRC 5D2473FD
Track not present in AccurateRip database
Copy OK

Track 6

Filename C:\temp\06 - Note A Margine.wav

Pre-gap length 0:00:02.00

Peak level 98.7 %
Extraction speed 3.0 X
Track quality 99.9 %
Test CRC E37BFD1F
Copy CRC E37BFD1F
Track not present in AccurateRip database
Copy OK

Track 7

Filename C:\temp\07 - Where Nothing Was There Before.wav

Pre-gap length 0:00:02.00

Peak level 98.7 %
Extraction speed 2.6 X
Track quality 99.9 %
Test CRC 68F005F0
Copy CRC 68F005F0
Track not present in AccurateRip database
Copy OK

Track 8

Filename C:\temp\08 - Open Space.wav

Pre-gap length 0:00:02.00

Peak level 98.7 %
Extraction speed 2.1 X
Track quality 99.8 %
Test CRC E3A70DE4
Copy CRC E3A70DE4
Track not present in AccurateRip database
Copy OK


None of the tracks are present in the AccurateRip database

No errors occurred

End of status report

–– CUETools DB Plugin V2.1.6

[CTDB TOCID: GqQlN4qKjhtSQHoQs3hEgdfCvUE-] disk not present in database
Submit result: GqQlN4qKjhtSQHoQs3hEgdfCvUE- has been uploaded


==== Log checksum E222DE1C3EAD437F46C29DE8E96E93C9C70E4C91E20CE20A843C83ADE4CE223A ====

All thanks go to the pieropicco

More Music in My Blog
Follow My RSS Channel