Subcategories

Antoine Dauvergne - Hercule Mourant [2CD] (2012) {Aparte} [re-up]

Posted By: ruskaval
Antoine Dauvergne - Hercule Mourant [2CD] (2012) {Aparte} [re-up]

Antoine Dauvergne - Hercule Mourant [2CD] (2012) {Aparte}
EAC rip (secure mode) | FLAC (tracks)+CUE+LOG -> 754 Mb | MP3 @320 -> 356 Mb
Full Artwork @ 300 dpi (png) -> 285 Mb | 5% repair rar
© 2012 Aparte | APO42
Classical / Opera / Baroque

Following on the international success of their recording of Lully's Bellerophon, Christophe Rousset and his ensemble Les Talens Lyriques present Hercule mourant (Hercules Dying) - an undiscovered operatic treasure by Antoine Dauvergne. When Francoeur and Rebel took over as directors of the Academie Royale de Musique (the Paris Opéra) in 1757, they decided to promote some of the new generation of composers. Among them was Dauvergne, who appears to have enjoyed great favor at that time. Premiered in 1762, Hercule mourant was a success, receiving eighteen performances. The opera's libretto by Jean-Francois Marmontel extended the scope of French opera: he was the first to have the courage to bring opera closer to the great spectacles of ancient Greece. Inspired and guided by Marmontel's libretto, he clearly aimed to take the genre in a completely new direction, anticipating the Romantic model for opera that was born with Gluck, while at the same time giving one of the last tributes to the great French tragedie lyrique tradition inherited from Lully.
Antoine Dauvergne - Hercule Mourant [2CD] (2012) {Aparte} [re-up]

Antoine Dauvergne (1713-1797) achieved his first and greatest success as it were by stealth. In his 1773 memoirs, Jean Monnet, the Opéra-Comique’s former impresario, discussed how impressed he was with the young composer’s first work for the Paris Opéra. Monnet conceived the idea of making the Bouffonistes—the “only music out of Italy is good and natural” crowd, who had many well-placed supporters—ridiculous by getting Dauvergne to write a work in their favored style. He let it be known that this new piece, Les Troqueurs , had been taken from a Viennese text, then set by a little-known Italian composer who understood French and was eager to try his hand at it. The result became so popular that it played to full, enthusiastic houses for as long as Monnet’s patent allowed. When the truth of its composition was revealed, the Bouffonistes fell over themselves attacking Dauvergne for being French even while maintaining that Les Troqueurs was superb because its style was Italian.

(This incident may have left its marks on the composer later in life. He became a champion for operas composed by France’s native sons, and his three relatively brief tenures as a director at the Opéra were mired in loud and dramatic controversy over this. On one famous occasion he overstepped, responding to Gluck’s offering of the First Act of Iphigénie for review by requesting five more such works as well before it could be performed, to satisfy what would be the obvious demand for his music. Gluck’s response to this means of putting him off was an end run to his former pupil, Marie Antoniette, and he won.)

Hercule mourant , on the other hand, was a brave attempt in 1761 to revitalize an earlier French operatic tradition, the tragédie lyrique . Its story was unusually austere for an upper class audience raised on the light, sentimental entertainments preferred by the court of Louis XV. Dauvergne in turn applied a musical style reminiscent of early Rameau, who in fact was his teacher.

The public divided over the opera according to their preference for the older or newer aesthetic. Those who preferred Rameau and Destouches were delighted with the natural way Dauvergne deployed structures and expressive devices that recalled theirs, as to the manner born. Others who preferred lighter subjects and simpler treatments dismissed it out of hand. Baron Grimm, who loved only the Italianate style, not surprisingly wrote, “The libretto and the music are not worth mentioning.” Perhaps the most telling criticism was one published in a contemporary review that referred to sections of Hercules mourant as “affected by the monotony of early French music,” by which was clearly meant Lully. The court and friends of Marie Antoinette were more interested in lovers divided and reunited, than vengeful goddesses and dying demi-gods.

It’s most difficult to understand those who, like another critic, wrote “ an opera composed by the author of… Les Troqueurs , without remembering a single air.” I was humming three airs myself after taking a break at the end of act I, that occurred in the first ten minutes (discounting the Overture) alone: Deianira’s “je crois le voir environné,” Hyllus’s delightful “Tout en elle intéresse, enchante,” and the “Victoire, victoire!” chorus. Dauvergne’s ability to generate dances as expressive as any in the oeuvre of Rameau is equally telling. His short and longer airs (the latter often in an abbreviated rondo form that resembles foreshortened da capo) are expressive: Hercules’s “Trompeuse image,” possesses a weight of shame and self-directed anger, while Hyllus’s “De l’amour le plus tendre” is as sweet as anything by Rameau, again; and his “Couvert de la robe fatale,” a retelling of Hercules’s death, as powerful as one could wish. The short orchestral introductions to each act recall Rameau’s brilliance yet once more, especially the overlapping, quickly descending violin figures of act IV that move in imitative chase.

In the end, Hercules mourant is an inspired attempt to create an opera of grandeur and pathos. But it was based on a model the French artistic and political elite no longer supported, and found no followers. Gluck’s highly Italianate Iphigénie displays the same qualities, but in a musical language that for better or worse was embraced by many. Perhaps Dauvergne, reading through that score, discovered more than just its composer’s land of birth to object to.

Despite the fact that the recording was made at a concert performance, there’s no lack of expressive singing from all the performers. Véronique Gens and Emiliano Gonzalez Toro are in excellent form, the latter a high tenor I’ve not heard before, and look forward to hearing again. Andrew Foster-Williams seems to be having a slightly off-night, his voice losing its focus and pitch when singing out full, but colorful, varied in character, and in complete control at all other times. His enunciation is especially welcome, as it is from Edwin Crossley-Mercer, whose brighter, higher sound makes for a good contrast. Jennifer Borghi is much as I recall in her performance in Lully’s Bellérophon , rich toned, but suffering from poor focus and pitch issues in her chest notes. Alain Buet has an unpleasant wobble, and resorts to shouting occasionally, though the quality of his dark bass is pleasant. Julie Fuchs has both the agility and silvery tone to make much of Iole, though she has a habit of swelling some notes without vibrato, and with a tightened throat, that shows her voice off to little advantage. Rousset leads a taut, vivid performance, no less theatrical for being unstaged, and Les Talens Lyriques, as usual, is fully up to the demands placed upon it. The sound is exceptionally well balanced, the singers not upstaged by, nor unnaturally loud when compared to, the orchestra.

This one’s definitely welcome. Without meaning to suggest that this work is on a consistent level with Dauvergne’s mentor, anybody who likes Rameau’s operas should find much to enjoy in Hercules mourant. Barry Brenesal

Personnel: Christophe Rousset, cond; Andrew Foster-Williams ( Hercules ); Véronique Gens ( Deianira ); Emiliano Gonzalez Toro ( Hyllus ); Edwin Crossley-Mercer ( Philoctetes ); Julie Fuchs ( Iole ); Alain Buet ( Jealousy, Jupiter ); Jennifer Borghi ( Juno ); Les Talens Lyriques.

tracklist:
Hercule Mourant (1761)
Tragédie-lyrique sur un livret de Jean-Francois Marmontel

CD1: 59'09
CD2: 79'19

Exact Audio Copy V1.0 beta 3 from 29. August 2011

EAC extraction logfile from 25. August 2013, 13:55

Antoine Dauvergne / Hercule mourant

Used drive : PLEXTOR DVDR PX-860A Adapter: 0 ID: 0

Read mode : Secure
Utilize accurate stream : Yes
Defeat audio cache : Yes
Make use of C2 pointers : No

Read offset correction : 96
Overread into Lead-In and Lead-Out : No
Fill up missing offset samples with silence : Yes
Delete leading and trailing silent blocks : No
Null samples used in CRC calculations : Yes
Used interface : Native Win32 interface for Win NT & 2000
Gap handling : Appended to previous track

Used output format : User Defined Encoder
Selected bitrate : 1024 kBit/s
Quality : High
Add ID3 tag : No
Command line compressor : C:\Program Files\Exact Audio Copy\Flac\flac.exe
Additional command line options : -8 -V -T "ARTIST=%artist%" -T "TITLE=%title%" -T "ALBUM=%albumtitle%" -T "DATE=%year%" -T "TRACKNUMBER=%tracknr%" -T "TOTALTRACKS=%numtracks%" -T "GENRE=%genre%" -T "ALBUMARTIST=%albumartist%" -T "ALBUM ARTIST=%albumartist%" -T "COMMENT=EAC Secure Mode, Test & Copy, AccurateRip, FLAC -8" %source%


TOC of the extracted CD

Track | Start | Length | Start sector | End sector
––––––––––––––––––––––––––––-
1 | 0:00.00 | 2:32.30 | 0 | 11429
2 | 2:32.30 | 1:33.11 | 11430 | 18415
3 | 4:05.41 | 1:14.11 | 18416 | 23976
4 | 5:19.52 | 1:35.15 | 23977 | 31116
5 | 6:54.67 | 1:14.72 | 31117 | 36738
6 | 8:09.64 | 1:24.25 | 36739 | 43063
7 | 9:34.14 | 2:13.56 | 43064 | 53094
8 | 11:47.70 | 1:20.27 | 53095 | 59121
9 | 13:08.22 | 2:27.22 | 59122 | 70168
10 | 15:35.44 | 2:33.23 | 70169 | 81666
11 | 18:08.67 | 1:05.47 | 81667 | 86588
12 | 19:14.39 | 1:26.47 | 86589 | 93085
13 | 20:41.11 | 0:22.56 | 93086 | 94791
14 | 21:03.67 | 0:14.13 | 94792 | 95854
15 | 21:18.05 | 1:22.62 | 95855 | 102066
16 | 22:40.67 | 0:56.07 | 102067 | 106273
17 | 23:36.74 | 2:03.53 | 106274 | 115551
18 | 25:40.52 | 3:32.27 | 115552 | 131478
19 | 29:13.04 | 3:00.45 | 131479 | 145023
20 | 32:13.49 | 1:37.25 | 145024 | 152323
21 | 33:50.74 | 1:23.73 | 152324 | 158621
22 | 35:14.72 | 0:40.51 | 158622 | 161672
23 | 35:55.48 | 1:11.73 | 161673 | 167070
24 | 37:07.46 | 1:01.21 | 167071 | 171666
25 | 38:08.67 | 1:17.15 | 171667 | 177456
26 | 39:26.07 | 2:07.37 | 177457 | 187018
27 | 41:33.44 | 2:04.51 | 187019 | 196369
28 | 43:38.20 | 2:50.33 | 196370 | 209152
29 | 46:28.53 | 2:29.00 | 209153 | 220327
30 | 48:57.53 | 1:20.06 | 220328 | 226333
31 | 50:17.59 | 2:02.12 | 226334 | 235495
32 | 52:19.71 | 1:11.30 | 235496 | 240850
33 | 53:31.26 | 3:08.45 | 240851 | 254995
34 | 56:39.71 | 2:59.31 | 254996 | 268451


Track 1

Filename O:\DL\Antoine Dauvergne - Hercule mourant (2012) [FLAC]\01 - Ouverture.wav

Pre-gap length 0:00:02.00

Peak level 46.9 %
Extraction speed 3.2 X
Track quality 99.9 %
Test CRC 42A3C1F1
Copy CRC 42A3C1F1
Track not present in AccurateRip database
Copy OK

Track 2

Filename O:\DL\Antoine Dauvergne - Hercule mourant (2012) [FLAC]\02 - Prestissimo.wav

Peak level 49.6 %
Extraction speed 3.6 X
Track quality 100.0 %
Test CRC F131FA34
Copy CRC F131FA34
Track not present in AccurateRip database
Copy OK

Track 3

Filename O:\DL\Antoine Dauvergne - Hercule mourant (2012) [FLAC]\03 - Acte premier - Scene 1 - Dejanire, Dirce- Dirce, voici le jour ou mon sort se decide.wav

Peak level 97.8 %
Extraction speed 3.4 X
Track quality 100.0 %
Test CRC 88CF334B
Copy CRC 88CF334B
Track not present in AccurateRip database
Copy OK

Track 4

Filename O:\DL\Antoine Dauvergne - Hercule mourant (2012) [FLAC]\04 - Acte premier - Scene 1 - Dejanire- Il vit pour l'univers, il ne vit plus pour nous..wav

Peak level 94.5 %
Extraction speed 3.9 X
Track quality 100.0 %
Test CRC BE189812
Copy CRC BE189812
Track not present in AccurateRip database
Copy OK

Track 5

Filename O:\DL\Antoine Dauvergne - Hercule mourant (2012) [FLAC]\05 - Acte premier - Scene 2 - Dejanire, Dirce, Hilus- Mais que vois-je, Mon fils !.wav

Peak level 57.9 %
Extraction speed 3.7 X
Track quality 100.0 %
Test CRC 51087B77
Copy CRC 51087B77
Track not present in AccurateRip database
Copy OK

Track 6

Filename O:\DL\Antoine Dauvergne - Hercule mourant (2012) [FLAC]\06 - Acte premier - Scene 2 - Hilus- Tout en elle interesse, enchante..wav

Peak level 97.7 %
Extraction speed 3.1 X
Track quality 99.8 %
Test CRC A29FED5B
Copy CRC A29FED5B
Track not present in AccurateRip database
Copy OK

Track 7

Filename O:\DL\Antoine Dauvergne - Hercule mourant (2012) [FLAC]\07 - Acte premier - Scene 3 - Dejanire, Dirce, Hilus, le peuple thessalien- Victoire, victoire !.wav

Peak level 97.7 %
Extraction speed 3.8 X
Track quality 99.9 %
Test CRC 96190B9C
Copy CRC 96190B9C
Track not present in AccurateRip database
Copy OK

Track 8

Filename O:\DL\Antoine Dauvergne - Hercule mourant (2012) [FLAC]\08 - Acte premier - Scene 3 - Air pour les peuples.wav

Peak level 52.0 %
Extraction speed 4.1 X
Track quality 100.0 %
Test CRC CEDAFC3E
Copy CRC CEDAFC3E
Track not present in AccurateRip database
Copy OK

Track 9

Filename O:\DL\Antoine Dauvergne - Hercule mourant (2012) [FLAC]\09 - Acte premier - Scene 3 - Premier et deuxieme menuets.wav

Peak level 47.6 %
Extraction speed 5.0 X
Track quality 100.0 %
Test CRC 20773D59
Copy CRC 20773D59
Track not present in AccurateRip database
Copy OK

Track 10

Filename O:\DL\Antoine Dauvergne - Hercule mourant (2012) [FLAC]\10 - Acte premier - Scene 3 - Une Thessalienne- Triomphe aimable paix, enchaine les heros.wav

Peak level 98.1 %
Extraction speed 5.2 X
Track quality 100.0 %
Test CRC B29293B8
Copy CRC B29293B8
Track not present in AccurateRip database
Copy OK

Track 11

Filename O:\DL\Antoine Dauvergne - Hercule mourant (2012) [FLAC]\11 - Acte premier - Scene 3 - Sarabande.wav

Peak level 32.0 %
Extraction speed 4.3 X
Track quality 100.0 %
Test CRC 1DDDEDFB
Copy CRC 1DDDEDFB
Track not present in AccurateRip database
Copy OK

Track 12

Filename O:\DL\Antoine Dauvergne - Hercule mourant (2012) [FLAC]\12 - Acte premier - Scene 3 - Premiere et deuxieme gavottes.wav

Peak level 40.0 %
Extraction speed 3.7 X
Track quality 99.8 %
Test CRC 4AAC9EEA
Copy CRC 4AAC9EEA
Track not present in AccurateRip database
Copy OK

Track 13

Filename O:\DL\Antoine Dauvergne - Hercule mourant (2012) [FLAC]\13 - Acte premier - Scene 3 - Contredanse.wav

Peak level 50.8 %
Extraction speed 2.6 X
Track quality 100.0 %
Test CRC 6FE2DB1B
Copy CRC 6FE2DB1B
Track not present in AccurateRip database
Copy OK

Track 14

Filename O:\DL\Antoine Dauvergne - Hercule mourant (2012) [FLAC]\14 - Acte premier - Scene 3 - Dejanire- Peuple, c'est votre appui qui revient dans ces lieux.wav

Peak level 86.2 %
Extraction speed 1.9 X
Track quality 100.0 %
Test CRC 18586654
Copy CRC 18586654
Track not present in AccurateRip database
Copy OK

Track 15

Filename O:\DL\Antoine Dauvergne - Hercule mourant (2012) [FLAC]\15 - Acte premier - Scene 4 - Junon, la Jalousie- N'es-tu qu'a moi seule fatale.wav

Peak level 98.0 %
Extraction speed 4.8 X
Track quality 100.0 %
Test CRC 2D7452F3
Copy CRC 2D7452F3
Track not present in AccurateRip database
Copy OK

Track 16

Filename O:\DL\Antoine Dauvergne - Hercule mourant (2012) [FLAC]\16 - Acte premier - Scene 4 - La Jalousie, Junon- Non, non, dans la nature entiere.wav

Peak level 97.7 %
Extraction speed 3.0 X
Track quality 99.8 %
Test CRC C84727F9
Copy CRC C84727F9
Track not present in AccurateRip database
Copy OK

Track 17

Filename O:\DL\Antoine Dauvergne - Hercule mourant (2012) [FLAC]\17 - Acte premier - Scene 4 - Junon, la Jalousie- Va, repands dans son sein les feux qui me consument.wav

Peak level 97.7 %
Extraction speed 5.5 X
Track quality 100.0 %
Test CRC 997A9043
Copy CRC 997A9043
Track not present in AccurateRip database
Copy OK

Track 18

Filename O:\DL\Antoine Dauvergne - Hercule mourant (2012) [FLAC]\18 - Acte second - Scene 1 - Iole- Quelle voix suspend mes alarmes.wav

Peak level 85.1 %
Extraction speed 6.3 X
Track quality 100.0 %
Test CRC 8D91AD2E
Copy CRC 8D91AD2E
Track not present in AccurateRip database
Copy OK

Track 19

Filename O:\DL\Antoine Dauvergne - Hercule mourant (2012) [FLAC]\19 - Acte second - Scene 2 - Iole, Hilus- Venez, fille des rois, il est temps deparaitre..wav

Peak level 98.4 %
Extraction speed 5.4 X
Track quality 99.9 %
Test CRC B55594DE
Copy CRC B55594DE
Track not present in AccurateRip database
Copy OK

Track 20

Filename O:\DL\Antoine Dauvergne - Hercule mourant (2012) [FLAC]\20 - Acte second - Scene 2 - Iole- Fille de Palenor, j'ai vu la flamme errante.wav

Peak level 98.4 %
Extraction speed 5.6 X
Track quality 100.0 %
Test CRC 2257F230
Copy CRC 2257F230
Track not present in AccurateRip database
Copy OK

Track 21

Filename O:\DL\Antoine Dauvergne - Hercule mourant (2012) [FLAC]\21 - Acte second - Scene 2 - Iole, Hilus- Le plaisir de meler nos larmes n'adoucira plus nos malheurs..wav

Peak level 68.2 %
Extraction speed 4.2 X
Track quality 99.8 %
Test CRC 6D508847
Copy CRC 6D508847
Track not present in AccurateRip database
Copy OK

Track 22

Filename O:\DL\Antoine Dauvergne - Hercule mourant (2012) [FLAC]\22 - Acte second - Scene 3 - Dejanire, Hilus- Mon fils, que tes vaisseaux, avant la fin du jour.wav

Peak level 71.3 %
Extraction speed 4.2 X
Track quality 100.0 %
Test CRC CAFDAB37
Copy CRC CAFDAB37
Track not present in AccurateRip database
Copy OK

Track 23

Filename O:\DL\Antoine Dauvergne - Hercule mourant (2012) [FLAC]\23 - Acte second - Scene 4 - Dejanire, Dirce- De mon bonheur puis-je douter encore, Dirce.wav

Peak level 54.2 %
Extraction speed 5.2 X
Track quality 100.0 %
Test CRC 8DE151A8
Copy CRC 8DE151A8
Track not present in AccurateRip database
Copy OK

Track 24

Filename O:\DL\Antoine Dauvergne - Hercule mourant (2012) [FLAC]\24 - Acte second - Scene 5 - Dejanire, Dirce, Iole, les captifs- epouse d'un heros qui des dieux est l'image.wav

Peak level 61.1 %
Extraction speed 5.0 X
Track quality 100.0 %
Test CRC 65E71230
Copy CRC 65E71230
Track not present in AccurateRip database
Copy OK

Track 25

Filename O:\DL\Antoine Dauvergne - Hercule mourant (2012) [FLAC]\25 - Acte second - Scene 5 - Air pour tous les captifs.wav

Peak level 42.2 %
Extraction speed 5.5 X
Track quality 100.0 %
Test CRC 4A73E242
Copy CRC 4A73E242
Track not present in AccurateRip database
Copy OK

Track 26

Filename O:\DL\Antoine Dauvergne - Hercule mourant (2012) [FLAC]\26 - Acte second - Scene 5 - Air pour les Europeens.wav

Peak level 44.7 %
Extraction speed 5.2 X
Track quality 99.9 %
Test CRC 948BBBFA
Copy CRC 948BBBFA
Track not present in AccurateRip database
Copy OK

Track 27

Filename O:\DL\Antoine Dauvergne - Hercule mourant (2012) [FLAC]\27 - Acte second - Scene 5 - Premier et deuxieme airs des Africains.wav

Peak level 34.3 %
Extraction speed 6.5 X
Track quality 100.0 %
Test CRC 2168FD1F
Copy CRC 2168FD1F
Track not present in AccurateRip database
Copy OK

Track 28

Filename O:\DL\Antoine Dauvergne - Hercule mourant (2012) [FLAC]\28 - Acte second - Scene 5 - Une captive, choeur- Je trouve mes dieux partous ou l'on aime..wav

Peak level 97.7 %
Extraction speed 7.0 X
Track quality 100.0 %
Test CRC 6C2B3A8A
Copy CRC 6C2B3A8A
Track not present in AccurateRip database
Copy OK

Track 29

Filename O:\DL\Antoine Dauvergne - Hercule mourant (2012) [FLAC]\29 - Acte second - Scene 5 - Premier et deuxieme airs pour les Asiatiques.wav

Peak level 27.9 %
Extraction speed 6.9 X
Track quality 100.0 %
Test CRC 14ABA7FA
Copy CRC 14ABA7FA
Track not present in AccurateRip database
Copy OK

Track 30

Filename O:\DL\Antoine Dauvergne - Hercule mourant (2012) [FLAC]\30 - Acte second - Scene 5 - Permier et deuxieme rigaudons.wav

Peak level 46.0 %
Extraction speed 6.0 X
Track quality 100.0 %
Test CRC 89C7AFD6
Copy CRC 89C7AFD6
Track not present in AccurateRip database
Copy OK

Track 31

Filename O:\DL\Antoine Dauvergne - Hercule mourant (2012) [FLAC]\31 - Acte second - Scene 5 - Dejanire- Princesse, au gre de la victoire.wav

Peak level 83.1 %
Extraction speed 5.6 X
Track quality 99.9 %
Test CRC B6388B09
Copy CRC B6388B09
Track not present in AccurateRip database
Copy OK

Track 32

Filename O:\DL\Antoine Dauvergne - Hercule mourant (2012) [FLAC]\32 - Acte second - Scene 6 - Dejanire, Dirce- Est-ce a vous de la retenir.wav

Peak level 97.8 %
Extraction speed 4.5 X
Track quality 99.8 %
Test CRC 87AE064E
Copy CRC 87AE064E
Track not present in AccurateRip database
Copy OK

Track 33

Filename O:\DL\Antoine Dauvergne - Hercule mourant (2012) [FLAC]\33 - Acte second - Scene 6 - Dejanire- La honte, la douleur, le desespoir, la rage.wav

Peak level 98.0 %
Extraction speed 7.5 X
Track quality 100.0 %
Test CRC BBAF5194
Copy CRC BBAF5194
Track not present in AccurateRip database
Copy OK

Track 34

Filename O:\DL\Antoine Dauvergne - Hercule mourant (2012) [FLAC]\34 - Acte second - Scene 6 - Air pour les Europeens.wav

Peak level 71.2 %
Extraction speed 7.4 X
Track quality 100.0 %
Test CRC 53470F9D
Copy CRC 53470F9D
Track not present in AccurateRip database
Copy OK


None of the tracks are present in the AccurateRip database

No errors occurred

End of status report

–– CUETools DB Plugin V2.1.3

[CTDB TOCID: AM26gQ_HAZLCXSB3oaFla8X0RyA-] found, Submit result: already submitted
[3bca2ad7] (2/2) Accurately ripped


==== Log checksum 201B563B32B3F7B278CC4704EED4E92572D1FC575D38D5179F8FACEDD7F465DA ====

Exact Audio Copy V1.0 beta 3 from 29. August 2011

EAC extraction logfile from 25. August 2013, 12:54

Antoine Dauvergne / Hercule mourant

Used drive : PLEXTOR DVDR PX-860A Adapter: 0 ID: 0

Read mode : Secure
Utilize accurate stream : Yes
Defeat audio cache : Yes
Make use of C2 pointers : No

Read offset correction : 96
Overread into Lead-In and Lead-Out : No
Fill up missing offset samples with silence : Yes
Delete leading and trailing silent blocks : No
Null samples used in CRC calculations : Yes
Used interface : Native Win32 interface for Win NT & 2000
Gap handling : Appended to previous track

Used output format : User Defined Encoder
Selected bitrate : 1024 kBit/s
Quality : High
Add ID3 tag : No
Command line compressor : C:\Program Files\Exact Audio Copy\Flac\flac.exe
Additional command line options : -8 -V -T "ARTIST=%artist%" -T "TITLE=%title%" -T "ALBUM=%albumtitle%" -T "DATE=%year%" -T "TRACKNUMBER=%tracknr%" -T "TOTALTRACKS=%numtracks%" -T "GENRE=%genre%" -T "ALBUMARTIST=%albumartist%" -T "ALBUM ARTIST=%albumartist%" -T "COMMENT=EAC Secure Mode, Test & Copy, AccurateRip, FLAC -8" %source%


TOC of the extracted CD

Track | Start | Length | Start sector | End sector
––––––––––––––––––––––––––––-
1 | 0:00.00 | 2:18.74 | 0 | 10423
2 | 2:18.74 | 2:27.51 | 10424 | 21499
3 | 4:46.50 | 1:34.48 | 21500 | 28597
4 | 6:21.23 | 3:05.54 | 28598 | 42526
5 | 9:27.02 | 0:34.48 | 42527 | 45124
6 | 10:01.50 | 2:04.36 | 45125 | 54460
7 | 12:06.11 | 1:32.39 | 54461 | 61399
8 | 13:38.50 | 0:52.42 | 61400 | 65341
9 | 14:31.17 | 3:52.69 | 65342 | 82810
10 | 18:24.11 | 1:43.25 | 82811 | 90560
11 | 20:07.36 | 0:33.20 | 90561 | 93055
12 | 20:40.56 | 0:37.57 | 93056 | 95887
13 | 21:18.38 | 0:36.18 | 95888 | 98605
14 | 21:54.56 | 4:06.36 | 98606 | 117091
15 | 26:01.17 | 1:44.39 | 117092 | 124930
16 | 27:45.56 | 3:10.15 | 124931 | 139195
17 | 30:55.71 | 1:10.54 | 139196 | 144499
18 | 32:06.50 | 1:36.27 | 144500 | 151726
19 | 33:43.02 | 2:28.37 | 151727 | 162863
20 | 36:11.39 | 0:51.08 | 162864 | 166696
21 | 37:02.47 | 2:40.27 | 166697 | 178723
22 | 39:42.74 | 0:34.14 | 178724 | 181287
23 | 40:17.13 | 1:36.58 | 181288 | 188545
24 | 41:53.71 | 2:47.20 | 188546 | 201090
25 | 44:41.16 | 1:23.46 | 201091 | 207361
26 | 46:04.62 | 1:07.63 | 207362 | 212449
27 | 47:12.50 | 3:47.53 | 212450 | 229527
28 | 51:00.28 | 1:12.14 | 229528 | 234941
29 | 52:12.42 | 1:13.53 | 234942 | 240469
30 | 53:26.20 | 1:49.33 | 240470 | 248677
31 | 55:15.53 | 1:39.27 | 248678 | 256129
32 | 56:55.05 | 1:39.69 | 256130 | 263623
33 | 58:34.74 | 0:56.41 | 263624 | 267864
34 | 59:31.40 | 1:04.71 | 267865 | 272735
35 | 60:36.36 | 0:39.44 | 272736 | 275704
36 | 61:16.05 | 0:53.65 | 275705 | 279744
37 | 62:09.70 | 0:51.37 | 279745 | 283606
38 | 63:01.32 | 1:54.49 | 283607 | 292205
39 | 64:56.06 | 1:49.63 | 292206 | 300443
40 | 66:45.69 | 3:19.41 | 300444 | 315409
41 | 70:05.35 | 0:47.72 | 315410 | 319006
42 | 70:53.32 | 8:44.09 | 319007 | 358315


Track 1

Filename O:\DL\Antoine Dauvergne - Hercule mourant (2012) [FLAC]\01 - Acte troisieme - Scene 1 - Hercule- Trompeuse image de ma gloire.wav

Pre-gap length 0:00:02.00

Peak level 64.4 %
Extraction speed 4.1 X
Track quality 100.0 %
Test CRC BFE4EA33
Copy CRC BFE4EA33
Track not present in AccurateRip database
Copy OK

Track 2

Filename O:\DL\Antoine Dauvergne - Hercule mourant (2012) [FLAC]\02 - Acte troisieme - Scene 2 - Hercule, Philoctete- Au pied du mont Olympe.wav

Peak level 84.7 %
Extraction speed 4.3 X
Track quality 100.0 %
Test CRC 5ACFAE66
Copy CRC 5ACFAE66
Track not present in AccurateRip database
Copy OK

Track 3

Filename O:\DL\Antoine Dauvergne - Hercule mourant (2012) [FLAC]\03 - Acte troisieme - Scene 2 - Annonce des Jeux Olympique, Solo - Marche.wav

Peak level 97.8 %
Extraction speed 4.0 X
Track quality 100.0 %
Test CRC 5A55B904
Copy CRC 5A55B904
Track not present in AccurateRip database
Copy OK

Track 4

Filename O:\DL\Antoine Dauvergne - Hercule mourant (2012) [FLAC]\04 - Acte troisieme - Scene 3 - Hercule, Philoctete, guerriers, compagnons d'Hercule, Thessaliens, Thessaliennes.wav

Peak level 69.0 %
Extraction speed 4.9 X
Track quality 100.0 %
Test CRC F491E868
Copy CRC F491E868
Track not present in AccurateRip database
Copy OK

Track 5

Filename O:\DL\Antoine Dauvergne - Hercule mourant (2012) [FLAC]\05 - Acte troisieme - Scene 3 - Prelude.wav

Peak level 34.5 %
Extraction speed 2.9 X
Track quality 100.0 %
Test CRC 48DB03DE
Copy CRC 48DB03DE
Track not present in AccurateRip database
Copy OK

Track 6

Filename O:\DL\Antoine Dauvergne - Hercule mourant (2012) [FLAC]\06 - Acte troisieme - Scene 3 - Choeur, Hercule et Philoctete- Chantons Alcide et ses Combats.wav

Peak level 98.3 %
Extraction speed 3.9 X
Track quality 99.9 %
Test CRC B8CD01EB
Copy CRC B8CD01EB
Track not present in AccurateRip database
Copy OK

Track 7

Filename O:\DL\Antoine Dauvergne - Hercule mourant (2012) [FLAC]\07 - Acte troisieme - Scene 3 - Air des Lutteurs.wav

Peak level 97.9 %
Extraction speed 4.6 X
Track quality 100.0 %
Test CRC 269EB8B7
Copy CRC 269EB8B7
Track not present in AccurateRip database
Copy OK

Track 8

Filename O:\DL\Antoine Dauvergne - Hercule mourant (2012) [FLAC]\08 - Acte troisieme - Scene 3 - Fanfare.wav

Peak level 97.9 %
Extraction speed 3.9 X
Track quality 100.0 %
Test CRC 818467B9
Copy CRC 818467B9
Track not present in AccurateRip database
Copy OK

Track 9

Filename O:\DL\Antoine Dauvergne - Hercule mourant (2012) [FLAC]\09 - Acte troisieme - Scene 3 - Un Thessalien- Amour, vole sur le Char de la Gloire.wav

Peak level 98.2 %
Extraction speed 5.8 X
Track quality 100.0 %
Test CRC 741659AA
Copy CRC 741659AA
Track not present in AccurateRip database
Copy OK

Track 10

Filename O:\DL\Antoine Dauvergne - Hercule mourant (2012) [FLAC]\10 - Acte troisieme - Scene 3 - Loure pour le prix de la Danse.wav

Peak level 74.5 %
Extraction speed 5.1 X
Track quality 100.0 %
Test CRC 398CEB99
Copy CRC 398CEB99
Track not present in AccurateRip database
Copy OK

Track 11

Filename O:\DL\Antoine Dauvergne - Hercule mourant (2012) [FLAC]\11 - Acte troisieme - Scene 3 - Air en Fanfare.wav

Peak level 69.3 %
Extraction speed 3.4 X
Track quality 100.0 %
Test CRC 032645A5
Copy CRC 032645A5
Track not present in AccurateRip database
Copy OK

Track 12

Filename O:\DL\Antoine Dauvergne - Hercule mourant (2012) [FLAC]\12 - Acte troisieme - Scene 3 - Hercule- Peuples, que l'Univers celebre, a votre exemple.wav

Peak level 97.9 %
Extraction speed 3.6 X
Track quality 100.0 %
Test CRC 22B27C96
Copy CRC 22B27C96
Track not present in AccurateRip database
Copy OK

Track 13

Filename O:\DL\Antoine Dauvergne - Hercule mourant (2012) [FLAC]\13 - Acte troisieme - Scene 3 - Fanfare.wav

Peak level 97.9 %
Extraction speed 3.4 X
Track quality 100.0 %
Test CRC 94A24F18
Copy CRC 94A24F18
Track not present in AccurateRip database
Copy OK

Track 14

Filename O:\DL\Antoine Dauvergne - Hercule mourant (2012) [FLAC]\14 - Acte troisieme - Scene 4 - Hercule, Philoctete, Hilus- Quoi ! Mon Fils de retour.wav

Peak level 97.1 %
Extraction speed 6.3 X
Track quality 100.0 %
Test CRC 65D87A5F
Copy CRC 65D87A5F
Track not present in AccurateRip database
Copy OK

Track 15

Filename O:\DL\Antoine Dauvergne - Hercule mourant (2012) [FLAC]\15 - Acte quatrieme - Scene 1 - Dejanire, Dirce, le Jalousie- Qu'ai-je fait ! O Nessus, ta Fureur m'a trompee.wav

Peak level 98.2 %
Extraction speed 5.6 X
Track quality 100.0 %
Test CRC 5AD6EFE8
Copy CRC 5AD6EFE8
Track not present in AccurateRip database
Copy OK

Track 16

Filename O:\DL\Antoine Dauvergne - Hercule mourant (2012) [FLAC]\16 - Acte quatrieme - Scene 2 - Dejanire, Choeur- Dieu, grand Dieu, sois sensible.wav

Peak level 98.3 %
Extraction speed 5.5 X
Track quality 99.9 %
Test CRC 31029080
Copy CRC 31029080
Track not present in AccurateRip database
Copy OK

Track 17

Filename O:\DL\Antoine Dauvergne - Hercule mourant (2012) [FLAC]\17 - Acte quatrieme - Scene 2 - Premier Air des Pretres de Jupiter.wav

Peak level 30.2 %
Extraction speed 3.8 X
Track quality 99.8 %
Test CRC B7B826B5
Copy CRC B7B826B5
Track not present in AccurateRip database
Copy OK

Track 18

Filename O:\DL\Antoine Dauvergne - Hercule mourant (2012) [FLAC]\18 - Acte quatrieme - Scene 2 - Sarabande.wav

Peak level 29.1 %
Extraction speed 5.6 X
Track quality 100.0 %
Test CRC 50ED7205
Copy CRC 50ED7205
Track not present in AccurateRip database
Copy OK

Track 19

Filename O:\DL\Antoine Dauvergne - Hercule mourant (2012) [FLAC]\19 - Acte quatrieme - Scene 2 - Premiere et deuxieme Gavottes.wav

Peak level 32.6 %
Extraction speed 6.2 X
Track quality 100.0 %
Test CRC 1AF1C6D7
Copy CRC 1AF1C6D7
Track not present in AccurateRip database
Copy OK

Track 20

Filename O:\DL\Antoine Dauvergne - Hercule mourant (2012) [FLAC]\20 - Acte quatrieme - Scene 2 - Le Grand Pretre, Choeur- Pere d'Alcide a tes Genoux pour lui, nos voeux se font entendre.wav

Peak level 66.8 %
Extraction speed 3.4 X
Track quality 99.7 %
Test CRC 773F4145
Copy CRC 773F4145
Track not present in AccurateRip database
Copy OK

Track 21

Filename O:\DL\Antoine Dauvergne - Hercule mourant (2012) [FLAC]\21 - Acte quatrieme - Scene 2 - Premier et deuxieme Airs.wav

Peak level 41.3 %
Extraction speed 5.6 X
Track quality 99.9 %
Test CRC E5800891
Copy CRC E5800891
Track not present in AccurateRip database
Copy OK

Track 22

Filename O:\DL\Antoine Dauvergne - Hercule mourant (2012) [FLAC]\22 - Acte quatrieme - Scene 2 - Dejanire, Le Grand Pretre- Le Temple est ebranle ! Quels eclats menacants !.wav

Peak level 97.9 %
Extraction speed 2.6 X
Track quality 99.6 %
Test CRC DA19DEA4
Copy CRC DA19DEA4
Track not present in AccurateRip database
Copy OK

Track 23

Filename O:\DL\Antoine Dauvergne - Hercule mourant (2012) [FLAC]\23 - Acte quatrieme - Scene 3 - Hilus, Dejanire- Ah, mon Fils !.wav

Peak level 98.0 %
Extraction speed 6.1 X
Track quality 100.0 %
Test CRC E059BB56
Copy CRC E059BB56
Track not present in AccurateRip database
Copy OK

Track 24

Filename O:\DL\Antoine Dauvergne - Hercule mourant (2012) [FLAC]\24 - Acte quatrieme - Scene 3 - Hilus- Couvert de ta Robe fatale.wav

Peak level 97.5 %
Extraction speed 6.9 X
Track quality 100.0 %
Test CRC 2A76D423
Copy CRC 2A76D423
Track not present in AccurateRip database
Copy OK

Track 25

Filename O:\DL\Antoine Dauvergne - Hercule mourant (2012) [FLAC]\25 - Acte quatrieme - Scene 3 - Dejanire- De mes Transports jaloux ton Pere est la Victime.wav

Peak level 80.3 %
Extraction speed 5.8 X
Track quality 100.0 %
Test CRC C12D4B61
Copy CRC C12D4B61
Track not present in AccurateRip database
Copy OK

Track 26

Filename O:\DL\Antoine Dauvergne - Hercule mourant (2012) [FLAC]\26 - Acte quatrieme - Scene 3 - Air.wav

Peak level 38.3 %
Extraction speed 5.4 X
Track quality 100.0 %
Test CRC F3F44264
Copy CRC F3F44264
Track not present in AccurateRip database
Copy OK

Track 27

Filename O:\DL\Antoine Dauvergne - Hercule mourant (2012) [FLAC]\27 - Acte cinquieme - Scene 1 - Marche - Choeur des Guerriers- Alcide au Tombeau va descendre.wav

Peak level 54.6 %
Extraction speed 6.7 X
Track quality 99.9 %
Test CRC C8E9207B
Copy CRC C8E9207B
Track not present in AccurateRip database
Copy OK

Track 28

Filename O:\DL\Antoine Dauvergne - Hercule mourant (2012) [FLAC]\28 - Acte cinquieme - Scene 2 - Hercule, Philoctete- Enfin je succombe a ma Rage.wav

Peak level 73.0 %
Extraction speed 5.9 X
Track quality 100.0 %
Test CRC 305C1548
Copy CRC 305C1548
Track not present in AccurateRip database
Copy OK

Track 29

Filename O:\DL\Antoine Dauvergne - Hercule mourant (2012) [FLAC]\29 - Acte cinquieme - Scene 3 - Hercule, Hilus, Iole, Philoctete, Choeur de Femmes- Approche.wav

Peak level 64.2 %
Extraction speed 4.6 X
Track quality 99.8 %
Test CRC A2E022D0
Copy CRC A2E022D0
Track not present in AccurateRip database
Copy OK

Track 30

Filename O:\DL\Antoine Dauvergne - Hercule mourant (2012) [FLAC]\30 - Acte cinquieme - Scene 4 - Choeur de Femmes- O Jour fatal ! o Mort cruelle !.wav

Peak level 98.1 %
Extraction speed 6.8 X
Track quality 100.0 %
Test CRC 19E44068
Copy CRC 19E44068
Track not present in AccurateRip database
Copy OK

Track 31

Filename O:\DL\Antoine Dauvergne - Hercule mourant (2012) [FLAC]\31 - Acte cinquieme - Scene 4 - Hercule- Que dis-je, Arrete, eloigne-toi.wav

Peak level 85.7 %
Extraction speed 6.8 X
Track quality 100.0 %
Test CRC 58D09B95
Copy CRC 58D09B95
Track not present in AccurateRip database
Copy OK

Track 32

Filename O:\DL\Antoine Dauvergne - Hercule mourant (2012) [FLAC]\32 - Acte cinquieme - Scene 4 - Hercule- Au defaut de mes Mains tremblantes.wav

Peak level 77.2 %
Extraction speed 5.4 X
Track quality 99.8 %
Test CRC 89CEF1CC
Copy CRC 89CEF1CC
Track not present in AccurateRip database
Copy OK

Track 33

Filename O:\DL\Antoine Dauvergne - Hercule mourant (2012) [FLAC]\33 - Acte cinquieme - Scene 4 - Hilus, Hercule, Philoctete, Choeur- Il expire dans les Tourments.wav

Peak level 91.8 %
Extraction speed 5.7 X
Track quality 100.0 %
Test CRC 92DD928D
Copy CRC 92DD928D
Track not present in AccurateRip database
Copy OK

Track 34

Filename O:\DL\Antoine Dauvergne - Hercule mourant (2012) [FLAC]\34 - Acte cinquieme - Scene 4 - Hercule, Hilus- Hilus, jure-moi d'accomplir la Volonte d'un Pere.wav

Peak level 97.9 %
Extraction speed 6.0 X
Track quality 100.0 %
Test CRC 08D29CAC
Copy CRC 08D29CAC
Track not present in AccurateRip database
Copy OK

Track 35

Filename O:\DL\Antoine Dauvergne - Hercule mourant (2012) [FLAC]\35 - Acte cinquieme - Scene 4 - Tonnerre et embrasement du Bucher.wav

Peak level 56.2 %
Extraction speed 5.0 X
Track quality 100.0 %
Test CRC 0066F8D8
Copy CRC 0066F8D8
Track not present in AccurateRip database
Copy OK

Track 36

Filename O:\DL\Antoine Dauvergne - Hercule mourant (2012) [FLAC]\36 - Acte cinquieme - Scene 4 - Descente de Jupiter et de la Cour celeste.wav

Peak level 51.5 %
Extraction speed 5.5 X
Track quality 100.0 %
Test CRC 8B4242FD
Copy CRC 8B4242FD
Track not present in AccurateRip database
Copy OK

Track 37

Filename O:\DL\Antoine Dauvergne - Hercule mourant (2012) [FLAC]\37 - Acte cinquieme - Scene 5 - Les precedentes, Hercule, Jupiter, la Cour celeste- Viens mon Fils.wav

Peak level 78.1 %
Extraction speed 5.3 X
Track quality 100.0 %
Test CRC 535BB107
Copy CRC 535BB107
Track not present in AccurateRip database
Copy OK

Track 38

Filename O:\DL\Antoine Dauvergne - Hercule mourant (2012) [FLAC]\38 - Acte cinquieme - Scene 5 - La Cour celeste et le Peuple- Que tout l'Univers soit ton Temple.wav

Peak level 92.9 %
Extraction speed 7.2 X
Track quality 100.0 %
Test CRC 21AA6475
Copy CRC 21AA6475
Track not present in AccurateRip database
Copy OK

Track 39

Filename O:\DL\Antoine Dauvergne - Hercule mourant (2012) [FLAC]\39 - Acte cinquieme - Scene 5 - Air pour les Divinites celestes.wav

Peak level 44.4 %
Extraction speed 7.2 X
Track quality 100.0 %
Test CRC FB2BA8B0
Copy CRC FB2BA8B0
Track not present in AccurateRip database
Copy OK

Track 40

Filename O:\DL\Antoine Dauvergne - Hercule mourant (2012) [FLAC]\40 - Acte cinquieme - Scene 5 - Premier et deuxieme Airs.wav

Peak level 44.0 %
Extraction speed 7.1 X
Track quality 99.9 %
Test CRC 963D0914
Copy CRC 963D0914
Track not present in AccurateRip database
Copy OK

Track 41

Filename O:\DL\Antoine Dauvergne - Hercule mourant (2012) [FLAC]\41 - Acte cinquieme - Scene 5 - Hercule- Peuples, recevez mes Adieux.wav

Peak level 70.1 %
Extraction speed 5.5 X
Track quality 100.0 %
Test CRC 6174BB0D
Copy CRC 6174BB0D
Track not present in AccurateRip database
Copy OK

Track 42

Filename O:\DL\Antoine Dauvergne - Hercule mourant (2012) [FLAC]\42 - Acte cinquieme - Scene 5 - Chaconne.wav

Peak level 98.3 %
Extraction speed 9.3 X
Track quality 100.0 %
Test CRC 70634C80
Copy CRC 70634C80
Track not present in AccurateRip database
Copy OK


None of the tracks are present in the AccurateRip database

No errors occurred

End of status report

–– CUETools DB Plugin V2.1.3

[CTDB TOCID: PBEHL3xbCbrdsjv4HfonZZD1S5o-] found, Submit result: PBEHL3xbCbrdsjv4HfonZZD1S5o- has been confirmed
[87c06dc3] (1/1) Accurately ripped


==== Log checksum 0DE9954D5E55B4F2BE2BDC9C1F5210D85363828255CB898301584009287CE625 ====


Antoine Dauvergne - Hercule Mourant [2CD] (2012) {Aparte} [re-up]

Antoine Dauvergne - Hercule Mourant [2CD] (2012) {Aparte} [re-up]