Subcategories

Dave Ferris - The Quiet One (1991)

Posted By: Domestos
Dave Ferris - The Quiet One (1991)

Dave Ferris - The Quiet One (1991)
EAC Rip | FLAC (tracks+.cue, log) ~ 389.67 Mb | 70:11 | Covers
Post-Bop, Contemporary Jazz | Label: Nine Winds Records - NWCD-0162

Although the Nine Winds label is best known for the avant-garde music of its founder Vinny Golia, this quartet set with pianist Dave Ferris, tenor-saxophonist Bob Sheppard, bassist Eric Von Essen and drummer Kendall Kay (trumpeter Howie Shear sits in on "Rhythm 8") falls into the modern mainstream. Straightahead jazz fans will enjoy hearing the fresh new pieces and the many creative solos from Ferris and Sheppard. ~ AllMusic Review by Scott Yanow

Track List:
01. The Road to Boston (Ferris) - 7:07
02. Original Music (Ferris) - 6:15
03. Lazy Bones (Ferris) - 6:03
04. A Midwest Moment (Ferris) - 7:47
05. Second Wind (Ferris) - 4:41
06. This One's for Bud (Ferris) - 5:45
07. The Quiet One (Ferris) - 7:23
08. Mr. Midnight (Ferris) - 5:27
09. Rhythm 8 (Ferris) - 4:56
10. The Village (Ferris) - 8:39
11. Ballade (Ferris) - 6:08

Dave Ferris - piano
Eric von Essen - bass
Kendall Kay - drums
Bob Sheppard - tenor saxophone
Howie Shear - trumpet (#9)

Dave Ferris - The Quiet One (1991)

Exact Audio Copy V1.3 from 2. September 2016

EAC extraction logfile from 8. July 2017, 20:31

Dave Ferris / The Quiet One

Used drive : ATAPI iHAS122 F Adapter: 1 ID: 0

Read mode : Secure
Utilize accurate stream : Yes
Defeat audio cache : Yes
Make use of C2 pointers : No

Read offset correction : 6
Overread into Lead-In and Lead-Out : No
Fill up missing offset samples with silence : Yes
Delete leading and trailing silent blocks : No
Null samples used in CRC calculations : Yes
Used interface : Native Win32 interface for Win NT & 2000
Gap handling : Appended to previous track

Used output format : User Defined Encoder
Selected bitrate : 1024 kBit/s
Quality : High
Add ID3 tag : No
Command line compressor : C:\Program Files (x86)\Exact Audio Copy\Flac\flac.exe
Additional command line options : -8 -e -V -T "ARTIST=%artist%" -T "TITLE=%title%" -T "ALBUM=%albumtitle%" -T "DATE=%year%" -T "TRACKNUMBER=%tracknr%" -T "GENRE=%genre%" -T "PERFORMER=%albuminterpret%" -T "COMPOSER=%composer%" %haslyrics%–tag-from-file=LYRICS="%lyricsfile%"%haslyrics% -T "ALBUMARTIST=%albumartist%" -T "DISCNUMBER=%cdnumber%" -T "TOTALDISCS=%totalcds%" -T "TOTALTRACKS=%numtracks%" -T "COMMENT=%comment%" %source% -o %dest%


TOC of the extracted CD

Track | Start | Length | Start sector | End sector
––––––––––––––––––––––––––––-
1 | 0:00.00 | 7:07.22 | 0 | 32046
2 | 7:07.22 | 6:14.40 | 32047 | 60136
3 | 13:21.62 | 6:02.68 | 60137 | 87354
4 | 19:24.55 | 7:47.15 | 87355 | 122394
5 | 27:11.70 | 4:40.65 | 122395 | 143459
6 | 31:52.60 | 5:44.52 | 143460 | 169311
7 | 37:37.37 | 7:23.13 | 169312 | 202549
8 | 45:00.50 | 5:26.55 | 202550 | 227054
9 | 50:27.30 | 4:56.02 | 227055 | 249256
10 | 55:23.32 | 8:38.58 | 249257 | 288164
11 | 64:02.15 | 6:08.37 | 288165 | 315801


Track 1

Filename D:\Rips\Dave Ferris - The Quiet One (1994) [FLAC] {NWCD-0162}\01 - The Road To Boston.wav

Pre-gap length 0:00:02.00

Peak level 100.0 %
Extraction speed 5.6 X
Track quality 99.9 %
Test CRC 2311BB40
Copy CRC 2311BB40
Accurately ripped (confidence 1) [7BD6660E] (AR v2)
Copy OK

Track 2

Filename D:\Rips\Dave Ferris - The Quiet One (1994) [FLAC] {NWCD-0162}\02 - Original Music.wav

Pre-gap length 0:00:01.86

Peak level 98.3 %
Extraction speed 7.1 X
Track quality 100.0 %
Test CRC B548FE56
Copy CRC B548FE56
Accurately ripped (confidence 1) [C477A7E9] (AR v2)
Copy OK

Track 3

Filename D:\Rips\Dave Ferris - The Quiet One (1994) [FLAC] {NWCD-0162}\03 - Lazy Bones.wav

Pre-gap length 0:00:01.80

Peak level 98.0 %
Extraction speed 7.8 X
Track quality 100.0 %
Test CRC 85AF9E60
Copy CRC 85AF9E60
Accurately ripped (confidence 1) [95BF2C0C] (AR v2)
Copy OK

Track 4

Filename D:\Rips\Dave Ferris - The Quiet One (1994) [FLAC] {NWCD-0162}\04 - A Midwest Moment.wav

Pre-gap length 0:00:01.13

Peak level 94.6 %
Extraction speed 8.7 X
Track quality 100.0 %
Test CRC 0FA57D97
Copy CRC 0FA57D97
Accurately ripped (confidence 1) [A7DB3F89] (AR v2)
Copy OK

Track 5

Filename D:\Rips\Dave Ferris - The Quiet One (1994) [FLAC] {NWCD-0162}\05 - Second Wind.wav

Pre-gap length 0:00:00.73

Peak level 95.3 %
Extraction speed 7.4 X
Track quality 99.9 %
Test CRC 7C2154C9
Copy CRC 7C2154C9
Accurately ripped (confidence 1) [D34044B7] (AR v2)
Copy OK

Track 6

Filename D:\Rips\Dave Ferris - The Quiet One (1994) [FLAC] {NWCD-0162}\06 - This One's For Bud.wav

Pre-gap length 0:00:00.84

Peak level 83.5 %
Extraction speed 9.6 X
Track quality 100.0 %
Test CRC 9EDB289E
Copy CRC 9EDB289E
Accurately ripped (confidence 1) [2C411668] (AR v2)
Copy OK

Track 7

Filename D:\Rips\Dave Ferris - The Quiet One (1994) [FLAC] {NWCD-0162}\07 - The Quiet One.wav

Pre-gap length 0:00:01.62

Peak level 100.0 %
Extraction speed 10.3 X
Track quality 100.0 %
Test CRC A0FF9C1F
Copy CRC A0FF9C1F
Accurately ripped (confidence 1) [B394E1C1] (AR v2)
Copy OK

Track 8

Filename D:\Rips\Dave Ferris - The Quiet One (1994) [FLAC] {NWCD-0162}\08 - Mr. Midnight.wav

Pre-gap length 0:00:01.37

Peak level 92.1 %
Extraction speed 10.5 X
Track quality 100.0 %
Test CRC 171F8060
Copy CRC 171F8060
Accurately ripped (confidence 1) [28DA9805] (AR v2)
Copy OK

Track 9

Filename D:\Rips\Dave Ferris - The Quiet One (1994) [FLAC] {NWCD-0162}\09 - Rhythm 8.wav

Pre-gap length 0:00:01.30

Peak level 100.0 %
Extraction speed 10.7 X
Track quality 100.0 %
Test CRC B453449C
Copy CRC B453449C
Accurately ripped (confidence 1) [82C9C3DE] (AR v2)
Copy OK

Track 10

Filename D:\Rips\Dave Ferris - The Quiet One (1994) [FLAC] {NWCD-0162}\10 - The Village.wav

Peak level 97.6 %
Extraction speed 11.7 X
Track quality 100.0 %
Test CRC 80A3380F
Copy CRC 80A3380F
Accurately ripped (confidence 1) [4A1C029A] (AR v2)
Copy OK

Track 11

Filename D:\Rips\Dave Ferris - The Quiet One (1994) [FLAC] {NWCD-0162}\11 - Ballade.wav

Pre-gap length 0:00:01.57

Peak level 52.9 %
Extraction speed 10.2 X
Track quality 99.9 %
Test CRC 0DFC8550
Copy CRC 0DFC8550
Accurately ripped (confidence 1) [AA63979E] (AR v2)
Copy OK


All tracks accurately ripped

No errors occurred

End of status report

–– CUETools DB Plugin V2.1.6

[CTDB TOCID: FthPfdmhmZiT1WcBZkG0KeABrvM-] disk not present in database
Submit result: FthPfdmhmZiT1WcBZkG0KeABrvM- has been uploaded


==== Log checksum 02C447C15D7A226C6C8A9F1E3B5A98408A1EF25E2FA3DD2DF0E681FE3F54BA70 ====

All thanks go to the femalecop

More Music in My Blog
Follow My RSS Channel