Subcategories

David Bowie - I Dig Everything: The 1966 Pye Singles (1966) {Sanctuary Records CMRCD1471 Mini-CD 2006 Re-issue}

Posted By: ruskaval
David Bowie - I Dig Everything: The 1966 Pye Singles (1966) {Sanctuary Records CMRCD1471 Mini-CD 2006 Re-issue}

David Bowie - I Dig Everything: The 1966 Pye Singles (1966) {Sanctuary Records CMRCD1471 Mini-CD 2006 Re-issue}
EAC rip (secure mode) | FLAC (tracks)+CUE+LOG -> 104 Mb | MP3 @320 -> 37 Mb
Full Artwork @ 600 dpi (png) -> 129 Mb | 5% repair rar
© 1966, 2006 Castle Music / Sanctuary Records | CMRCD1471
Rock / Pop / British Invasion / Mod

In 1972, at the height of David Bowie's newly ignited fame, former label Pye unlocked the vault and produced an EP, the aptly subtitled "For the Collector – Early David Bowie," reprising four of the six songs Bowie recorded during 1965-1966. Since that time, those four (plus their two companions) have established themselves among the most frequently revisited songs in his entire catalog, reissued so frequently, and in so many different formats, that there truly cannot be a single Bowie fan left out there who doesn't own them at least three times over. And here they are again, half a dozen slices of the young Bowie at his most endearing, mourning lost love and celebrating youthful promise, with his whole life ahead of him and fame still more than half a decade away.

They're great songs, as well, classic mid-'60s Britbeat, and though they're a world removed from all that he went on to, it's worth remembering that he would be looking at them again, for the late-'90s ultimately abandoned Toy project.
David Bowie - I Dig Everything: The 1966 Pye Singles (1966) {Sanctuary Records CMRCD1471 Mini-CD 2006 Re-issue}

David Bowie - I Dig Everything: The 1966 Pye Singles (1966) {Sanctuary Records CMRCD1471 Mini-CD 2006 Re-issue}


Track Listing

01. I'm Not Losing Sleep - 02:56
02. I Dig Everything - 02:46
03. Can't Help Thinking About Me - 02:46
04. Do Anything You Say - 02:31
05. Good Morning Girl - 02:14
06. And I Say To Myself - 02:29

Exact Audio Copy V1.3 from 2. September 2016

EAC extraction logfile from 2. September 2017, 8:42

David Bowie / I Dig Everything, The 1966 Pye Singles [2006 Re-issue]

Used drive : ASUS BW-16D1HT Adapter: 1 ID: 0

Read mode : Secure
Utilize accurate stream : Yes
Defeat audio cache : Yes
Make use of C2 pointers : No

Read offset correction : 6
Overread into Lead-In and Lead-Out : No
Fill up missing offset samples with silence : Yes
Delete leading and trailing silent blocks : No
Null samples used in CRC calculations : Yes
Used interface : Native Win32 interface for Win NT & 2000
Gap handling : Appended to previous track

Used output format : User Defined Encoder
Selected bitrate : 896 kBit/s
Quality : High
Add ID3 tag : No
Command line compressor : C:\Exact Audio Copy\FLAC\FLAC.EXE
Additional command line options : -8 -V -T "ARTIST=%artist%" -T "TITLE=%title%" -T "ALBUM=%albumtitle%" -T "DATE=%year%" -T "TRACKNUMBER=%tracknr%" -T "TOTALTRACKS=%numtracks%" -T "GENRE=%genre%" -T "ALBUMARTIST=%albumartist%" -T "ALBUM ARTIST=%albumartist%" -T "COMMENT=EAC Secure Mode, Test & Copy, AccurateRip, FLAC -8" %source%


TOC of the extracted CD

Track | Start | Length | Start sector | End sector
––––––––––––––––––––––––––––-
1 | 0:00.00 | 2:55.72 | 0 | 13196
2 | 2:55.72 | 2:45.60 | 13197 | 25631
3 | 5:41.57 | 2:46.03 | 25632 | 38084
4 | 8:27.60 | 2:30.70 | 38085 | 49404
5 | 10:58.55 | 2:13.57 | 49405 | 59436
6 | 13:12.37 | 2:28.60 | 59437 | 70596


Track 1

Filename E:\01 - I'm Not Losing Sleep.wav

Pre-gap length 0:00:02.00

Peak level 98.8 %
Extraction speed 0.8 X
Track quality 99.9 %
Test CRC CDF4FF69
Copy CRC CDF4FF69
Accurately ripped (confidence 5) [EC71B205] (AR v2)
Copy OK

Track 2

Filename E:\02 - I Dig Everything.wav

Pre-gap length 0:00:02.52

Peak level 98.8 %
Extraction speed 1.0 X
Track quality 100.0 %
Test CRC 3E5FFDFC
Copy CRC 3E5FFDFC
Accurately ripped (confidence 5) [FF91BCB0] (AR v2)
Copy OK

Track 3

Filename E:\03 - Can't Help Thinking About Me.wav

Pre-gap length 0:00:02.52

Peak level 98.8 %
Extraction speed 1.1 X
Track quality 100.0 %
Test CRC A8478A31
Copy CRC A8478A31
Accurately ripped (confidence 5) [50354993] (AR v2)
Copy OK

Track 4

Filename E:\04 - Do Anything You Say.wav

Pre-gap length 0:00:02.30

Peak level 95.4 %
Extraction speed 1.1 X
Track quality 100.0 %
Test CRC 3F0CBF20
Copy CRC 3F0CBF20
Accurately ripped (confidence 5) [5F9C3616] (AR v2)
Copy OK

Track 5

Filename E:\05 - Good Morning Girl.wav

Pre-gap length 0:00:02.55

Peak level 98.8 %
Extraction speed 0.9 X
Track quality 99.9 %
Test CRC 92AC52CF
Copy CRC 92AC52CF
Accurately ripped (confidence 5) [1BDF4B76] (AR v2)
Copy OK

Track 6

Filename E:\06 - And I Say To Myself.wav

Pre-gap length 0:00:02.47

Peak level 98.8 %
Extraction speed 1.2 X
Track quality 100.0 %
Test CRC 40D1FE96
Copy CRC 40D1FE96
Accurately ripped (confidence 5) [385C53D7] (AR v2)
Copy OK


All tracks accurately ripped

No errors occurred

End of status report

==== Log checksum D8008C1EFE7E52F3F73FBF2DD1A18A981321D3023A2FD4763FB33D089B3A918F ====


David Bowie - I Dig Everything: The 1966 Pye Singles (1966) {Sanctuary Records CMRCD1471 Mini-CD 2006 Re-issue}

David Bowie - I Dig Everything: The 1966 Pye Singles (1966) {Sanctuary Records CMRCD1471 Mini-CD 2006 Re-issue}



===