David Baskeyfield - L'orgue de St Paul's Bloor Street (2015)

Posted By: delpotro
David Baskeyfield  - L'orgue de St Paul's Bloor Street (2015)

David Baskeyfield - L'orgue de St Paul's Bloor Street (2015)
EAC Rip | FLAC (tracks+log+.cue) | Digital booklet | 01:20:06 | 241 Mb
Classical, Organ | Label: ATMA Classique

David Baskeyfield so impressed a presitigous jury of nine promimnent organists at the Canadian International Organ Competition in 2014 that he was awarded first prize overall, as well as the prize for best performance of a Canadian work. As the winner of the competition, Baskeyfield was invited to record a solo album with ATMA Classique.

Baskeyfield’s program showcases the organ of St Paul’s Church in Toronto—an ideal instrument to introduce the organist to a new generation of listeners. Though the St. Paul’s organ has not been recorded in recent years, it is well known to organ historians. The organ at St. Paul΄s organ was built in 1914 by Casavant Freres, and when composer Healey Willan played for the dedication in April 1914, it was believed to be the fifth largest organ in the world, with 106 stops to the 77 of St. Paul’s London and Westminster Abbey.
Tracklist:
01 - Ernest MacMillan - Cortège Académique
02 - François Morel - Prière
03 - Herbert Howells - Rhapsodie n° 3 en do dièse mineur - Op. 17.
04 - Alfred Hollins - Scherzo
05 - Percy Whitlock - Plymouth Suite. Allegro risoluto
06 - Percy Whitlock - Plymouth Suite. Lantata
07 - Percy Whitlock - Plymouth Suite. Chanty
08 - Percy Whitlock - Plymouth Suite. Salix
09 - Percy Whitlock - Plymouth Suite. Toccata
10 - Louis Vierne - Naïades - Op. 55. Pièce de fantaisie pour orgue n° 4
11 - Camille Saint-Saëns - Prélude et Fugue en si majeur n°2 - Op. 109. Prélude
12 - Camille Saint-Saëns - Prélude et Fugue en si majeur n°2 - Op. 109. Fugue
13 - Raffaele Manari - Studio da concerto 'Salve Regina'
14 - Healey Willan - Introduction, Passacaglia et Fugue en mi bémol mineur. Introduction
15 - Healey Willan - Introduction, Passacaglia et Fugue en mi bémol mineur. Passacaglia
16 - Healey Willan - Introduction, Passacaglia et Fugue en mi bémol mineur. Fugue

Exact Audio Copy V1.3 from 2. September 2016

EAC extraction logfile from 16. October 2017, 18:35

David Baskeyfield / Oeuvres pour orgue

Used drive : TSSTcorpDVD+-RW TS-H653B Adapter: 1 ID: 0

Read mode : Secure
Utilize accurate stream : Yes
Defeat audio cache : Yes
Make use of C2 pointers : No

Read offset correction : 6
Overread into Lead-In and Lead-Out : No
Fill up missing offset samples with silence : Yes
Delete leading and trailing silent blocks : No
Null samples used in CRC calculations : Yes
Used interface : Native Win32 interface for Win NT & 2000
Gap handling : Appended to previous track

Used output format : User Defined Encoder
Selected bitrate : 1024 kBit/s
Quality : High
Add ID3 tag : No
Command line compressor : C:\Program Files (x86)\Exact Audio Copy\Flac\flac.exe
Additional command line options : -8 -e -p -V -T "ARTIST=%artist%" -T "TITLE=%title%" -T "ALBUM=%albumtitle%" -T "DATE=%year%" -T "TRACKNUMBER=%tracknr%" -T "GENRE=%genre%" -T "PERFORMER=%albuminterpret%" -T "COMPOSER=%composer%" %haslyrics%–tag-from-file=LYRICS="%lyricsfile%"%haslyrics% -T "ALBUMARTIST=%albumartist%" -T "DISCNUMBER=%cdnumber%" -T "TOTALDISCS=%totalcds%" -T "TOTALTRACKS=%numtracks%" -T "COMMENT=%comment%" %source% -o %dest%


TOC of the extracted CD

Track | Start | Length | Start sector | End sector
––––––––––––––––––––––––––––-
1 | 0:00.00 | 5:05.20 | 0 | 22894
2 | 5:05.20 | 5:35.68 | 22895 | 48087
3 | 10:41.13 | 8:49.69 | 48088 | 87831
4 | 19:31.07 | 3:56.08 | 87832 | 105539
5 | 23:27.15 | 4:50.09 | 105540 | 127298
6 | 28:17.24 | 3:19.51 | 127299 | 142274
7 | 31:37.00 | 2:35.62 | 142275 | 153961
8 | 34:12.62 | 3:32.24 | 153962 | 169885
9 | 37:45.11 | 4:28.61 | 169886 | 190046
10 | 42:13.72 | 4:48.48 | 190047 | 211694
11 | 47:02.45 | 4:09.73 | 211695 | 230442
12 | 51:12.43 | 3:06.26 | 230443 | 244418
13 | 54:18.69 | 6:01.20 | 244419 | 271513
14 | 60:20.14 | 4:33.40 | 271514 | 292028
15 | 64:53.54 | 10:15.37 | 292029 | 338190
16 | 75:09.16 | 4:57.02 | 338191 | 360467


Track 1

Filename C:\Musique\David Baskeyfield - Oeuvres pour orgue - 2015 - FLAC\01 - Cortège Académique.wav

Pre-gap length 0:00:02.00

Peak level 98.0 %
Extraction speed 5.0 X
Track quality 100.0 %
Test CRC BF644E7A
Copy CRC BF644E7A
Track not present in AccurateRip database
Copy OK

Track 2

Filename C:\Musique\David Baskeyfield - Oeuvres pour orgue - 2015 - FLAC\02 - Prière.wav

Pre-gap length 0:00:02.54

Peak level 9.8 %
Extraction speed 5.7 X
Track quality 100.0 %
Test CRC 97CF7F43
Copy CRC 97CF7F43
Track not present in AccurateRip database
Copy OK

Track 3

Filename C:\Musique\David Baskeyfield - Oeuvres pour orgue - 2015 - FLAC\03 - Rhapsodie n° 3 en do dièse mineur - Op. 17..wav

Pre-gap length 0:00:04.10

Peak level 59.7 %
Extraction speed 6.6 X
Track quality 100.0 %
Test CRC B5F8A0E2
Copy CRC B5F8A0E2
Track not present in AccurateRip database
Copy OK

Track 4

Filename C:\Musique\David Baskeyfield - Oeuvres pour orgue - 2015 - FLAC\04 - Scherzo.wav

Pre-gap length 0:00:04.34

Peak level 7.9 %
Extraction speed 6.6 X
Track quality 100.0 %
Test CRC D10D1341
Copy CRC D10D1341
Track not present in AccurateRip database
Copy OK

Track 5

Filename C:\Musique\David Baskeyfield - Oeuvres pour orgue - 2015 - FLAC\05 - Plymouth Suite. Allegro risoluto.wav

Pre-gap length 0:00:05.28

Peak level 80.6 %
Extraction speed 7.1 X
Track quality 100.0 %
Test CRC D8AFEFE1
Copy CRC D8AFEFE1
Track not present in AccurateRip database
Copy OK

Track 6

Filename C:\Musique\David Baskeyfield - Oeuvres pour orgue - 2015 - FLAC\06 - Plymouth Suite. Lantata.wav

Peak level 13.2 %
Extraction speed 7.0 X
Track quality 100.0 %
Test CRC 2CAB9D52
Copy CRC 2CAB9D52
Track not present in AccurateRip database
Copy OK

Track 7

Filename C:\Musique\David Baskeyfield - Oeuvres pour orgue - 2015 - FLAC\07 - Plymouth Suite. Chanty.wav

Peak level 10.5 %
Extraction speed 6.9 X
Track quality 100.0 %
Test CRC 461DD474
Copy CRC 461DD474
Track not present in AccurateRip database
Copy OK

Track 8

Filename C:\Musique\David Baskeyfield - Oeuvres pour orgue - 2015 - FLAC\08 - Plymouth Suite. Salix.wav

Peak level 10.1 %
Extraction speed 7.5 X
Track quality 100.0 %
Test CRC 99F1B131
Copy CRC 99F1B131
Track not present in AccurateRip database
Copy OK

Track 9

Filename C:\Musique\David Baskeyfield - Oeuvres pour orgue - 2015 - FLAC\09 - Plymouth Suite. Toccata.wav

Peak level 83.4 %
Extraction speed 8.0 X
Track quality 100.0 %
Test CRC FCA6AB0C
Copy CRC FCA6AB0C
Track not present in AccurateRip database
Copy OK

Track 10

Filename C:\Musique\David Baskeyfield - Oeuvres pour orgue - 2015 - FLAC\10 - Naïades - Op. 55. Pièce de fantaisie pour orgue n° 4.wav

Pre-gap length 0:00:05.13

Peak level 5.8 %
Extraction speed 8.4 X
Track quality 100.0 %
Test CRC D84C108B
Copy CRC D84C108B
Track not present in AccurateRip database
Copy OK

Track 11

Filename C:\Musique\David Baskeyfield - Oeuvres pour orgue - 2015 - FLAC\11 - Prélude et Fugue en si majeur n°2 - Op. 109. Prélude.wav

Pre-gap length 0:00:05.37

Peak level 19.6 %
Extraction speed 6.9 X
Track quality 99.9 %
Test CRC 6C40E2FF
Copy CRC 6C40E2FF
Track not present in AccurateRip database
Copy OK

Track 12

Filename C:\Musique\David Baskeyfield - Oeuvres pour orgue - 2015 - FLAC\12 - Prélude et Fugue en si majeur n°2 - Op. 109. Fugue.wav

Peak level 25.1 %
Extraction speed 8.3 X
Track quality 100.0 %
Test CRC 244D6B5C
Copy CRC 244D6B5C
Track not present in AccurateRip database
Copy OK

Track 13

Filename C:\Musique\David Baskeyfield - Oeuvres pour orgue - 2015 - FLAC\13 - Studio da concerto ''Salve Regina''.wav

Pre-gap length 0:00:04.68

Peak level 95.2 %
Extraction speed 9.4 X
Track quality 100.0 %
Test CRC 786C4A20
Copy CRC 786C4A20
Track not present in AccurateRip database
Copy OK

Track 14

Filename C:\Musique\David Baskeyfield - Oeuvres pour orgue - 2015 - FLAC\14 - Introduction, Passacaglia et Fugue en mi bémol mineur. Introduction.wav

Pre-gap length 0:00:05.15

Peak level 66.2 %
Extraction speed 7.6 X
Track quality 99.9 %
Test CRC 1F084602
Copy CRC 1F084602
Track not present in AccurateRip database
Copy OK

Track 15

Filename C:\Musique\David Baskeyfield - Oeuvres pour orgue - 2015 - FLAC\15 - Introduction, Passacaglia et Fugue en mi bémol mineur. Passacaglia.wav

Peak level 79.6 %
Extraction speed 9.4 X
Track quality 99.9 %
Test CRC D5FF6FF8
Copy CRC D5FF6FF8
Track not present in AccurateRip database
Copy OK

Track 16

Filename C:\Musique\David Baskeyfield - Oeuvres pour orgue - 2015 - FLAC\16 - Introduction, Passacaglia et Fugue en mi bémol mineur. Fugue.wav

Peak level 78.6 %
Extraction speed 10.2 X
Track quality 100.0 %
Test CRC 6015B638
Copy CRC 6015B638
Track not present in AccurateRip database
Copy OK


None of the tracks are present in the AccurateRip database

No errors occurred

End of status report

==== Log checksum E5672BC06F0C1DEB8335CB93C7185EB841E525F680F23CEEC18CE50672BE1FA2 ====

Thanks to the Original ripper nekoma !