Subcategories

David Oistrakh - David Oistrakh Edition (1997) (2004 Reissue) (5CD Box Set)

Posted By: shamanicus
David Oistrakh - David Oistrakh Edition (1997) (2004  Reissue) (5CD Box Set)

David Oistrakh - David Oistrakh Edition (2004) (5CD Box Set)
EAC Rip | FLAC (tracks+.cue, log) | Artwork | 1.69 Gb | MP3 CBR 320kbps | RAR | 901 mb
Classical | Label: Melodiya / MEL CD 10 00745 / Reissue

Anyone listening to this admirable set will gain an accurate impression of David Oistrakh’s overall playing style, his poise, composure, interpretative finesse, velvety tone and highly sophisticated musicianship. Various of the works programmed are - or have been - available in alternative Oistrakh recordings (the Tchaikovsky and Brahms concertos in around six versions apiece), but Melodiya’s selections are, in general, judiciously chosen.

The Tchaikovsky Concerto is represented by a 1968 concert performance that marked Oistrakh’s 60th birthday (EMI once released the same recording on an Oistrakh video), a flexibly phrased, generously expressive account, subtly different from its best-known forebears (namely under Konwitschny and Ormandy) and significantly unlike Oistrakh’s more overtly virtuoso first recording of the piece, from 1939 (currently available on Russian Disc). By 1968, the tone was drier and the approach more accommodating to the whim of the moment.
Both here and in the accompanying Sibelius items, Rozhdestvensky’s perceptive conducting is a notable extra bonus. The Sibelius Concerto is compellingly dark-hued (this is surely Oistrakh’s finest recorded account of the score), whereas the far earlier (mono) recordings of the Brahms and concertos Dvorak concertos – both of which are ably conducted by Kyrill Kondrashin - disclose a winning equanimity, ravishing tone, crisp articulation and a closely balanced solo image. Oistrakh’s tone and technique were probably at their best during the 1940s and 1950s.
The 1949 Dvorak Concerto performance surely influenced Josef Suk’s classic recording of a few years later (the one conducted by Karel Ancerl), but when it comes to the Brahms Concerto, fond as I am of this recording (dating from 1951), I would still urge readers to investigate the superb 1963 live performance on Revelation - also under Kondrashin - which is rather more spontaneous.
The live duo-sonata performances with Sviatoslav Richter - all of which date from the late 1960s or early 1970s - combine assertively masculine pianism with a confidential, sometimes husky thread of violin tone, the tender anima, perhaps, to contrast against Richter’s bold animus. The two together make for some indelible dialogue, the Brahms urgent and imploring, the Franck majestic, the Bartok gritty but playful and the Shostakovich – a work which is dedicated to Oistrakh – quietly conversational. Readers wanting to complete an Oistrakh Brahms sonata ‘cycle’ are directed to a fine performance of the First Sonata with Lev Oborin on Revelation.
The disc of “Pieces for Violin and Piano” contains a number of rarities, including two beautiful Schumann arrangements, Leopold Auer’s of the song Widmung and Fritz Kreisler’s of the lovely Romance in A major, Op. 94 No. 2. Both are prime examples of a relatively young David Oistrakh in ‘miniature mode’, as are four Brahms Hungarian Dances and Paul Kochansky’s skilful transcriptions of six of Falla’s Seven Popular Spanish Songs. The mono recordings, which here date from the late 1940s and early 1950s are mostly very good indeed. Documentation and transfers are first-rate.'
Gramophone



Tracklist:

Disc: 1

David Oistrakh - David Oistrakh Edition (1997) (2004  Reissue) (5CD Box Set)


Pyotr Ilyich Tchaikovsky
1. Violin Concerto In D Major, Op. 35: 1. Allegro moderato
2. Violin Concerto In D Major, Op. 35: 2. Canzonetta. Andante
3. Violin Concerto In D Major, Op. 35: 3. Finale. Allegro vivacissimo

Jean Sibelius
4. Violin Concerto In D Minor, Op. 47: 1. Allegro moderato
5. Violin Concerto In D Minor, Op. 47: 2. Adagio di molto
6. Violin Concerto In D Minor, Op. 47: 3. Allegro, ma non troppo
7. Two Humoresques For Violin And Orchestra op. 87: No. 1 In D Minor
8. Two Humoresques For Violin And Orchestra op. 87: No. 2 In D Major

David Oistrakh - David Oistrakh Edition (1997) (2004  Reissue) (5CD Box Set)



Disc: 2

David Oistrakh - David Oistrakh Edition (1997) (2004  Reissue) (5CD Box Set)


Johannes Brahms
1. Violin Concerto In D Major, Op. 77: 1. Allegro non troppo
2. Violin Concerto In D Major, Op. 77: 2. Adagio
3. Violin Concerto In D Major, Op. 77: 3. Allegro giocoso, ma non troppo vivace - Poco piu presto

Antonín Dvořák
4. Violin Concerto In A Minor, Op. 53: 1. Allegro ma non troppo
5. Violin Concerto In A Minor, Op. 53: 2. Adagio ma non troppo
6. Violin Concerto In A Minor, Op. 53: 3. Finale. Allegro gioicoso, ma non troppo

David Oistrakh - David Oistrakh Edition (1997) (2004  Reissue) (5CD Box Set)



Disc: 3

David Oistrakh - David Oistrakh Edition (1997) (2004  Reissue) (5CD Box Set)


Tomaso Antonio Vitali
1. Ciacona In G Minor

Christoph Willibald Gluck
2. Orfeo ed Euridice: Melody

Robert Schumann
3. Widmung, Op. 25 No. 1
4. Romance In A Major Op. 94 No. 2

Johannes Brahms
5. Hungarian Dance No. 8 in A Minor - Presto
6. Hungarian Dance No. 9 in E Minor - Allegro ma non troppo
7. Hungarian Dance No. 20 in D Minor - Allegretto - Vivace
8. Hungarian Dance No. 5 in G Minor - Allegro - Vivace

Manuel de Falla
9. Siete Canciones populares espanolas: El pano moruno
10. Siete Canciones populares espanolas: Nana. Berceuse
11. Siete Canciones populares espanolas: Cancion
12. Siete Canciones populares espanolas: Polo
13. Siete Canciones populares espanolas: Asturiana
14. Siete Canciones populares espanolas: Jota

Isaac Albéniz
15. Six Songs: Love Song, No. 6

Enrique Granados
16. Danzas espanolas op. 37: Andaluza No. 5

Claude Debusyy
17. Suite Bergamasque: Passepied
18. Beau Soir

Alexander Glazunov
19. Raymonda op. 57: Entr' acte

Sergei Rachmaninoff
20. Daisies, op. 38 No. 3
21. Vocalise op. 34 No. 14

David Oistrakh - David Oistrakh Edition (1997) (2004  Reissue) (5CD Box Set)



Disc: 4

David Oistrakh - David Oistrakh Edition (1997) (2004  Reissue) (5CD Box Set)


Johannes Brahms
1. Violin Sonata No. 2 op. 100: 1. Allegro amabile
2. Violin Sonata No. 2 op. 100: 2. Andante tranquillo - Vivace - Andante - Vivace di piu - Andante - Vivace
3. Violin Sonata No. 2 op. 100: Allegro grazioso (quasi Andante)
4. Violin Sonata No. 3 op. 108: 1. Allegro
5. Violin Sonata No. 3 op. 108: 2. Adagio
6. Violin Sonata No. 3 op. 108: 3. Un poco presto e con sentimento
7. Violin Sonata No. 3 op. 108: 4. Presto agitato

César Franck
8. Violin Sonata In A Major: 1. Allegretto ben moderato
9. Violin Sonata In A Major: 2. Allegro
10. Violin Sonata In A Major: 3. Recitativo - Fantasia. Ben moderato
11. Violin Sonata In A Major: 4. Allegretto poco mosso

David Oistrakh - David Oistrakh Edition (1997) (2004  Reissue) (5CD Box Set)



Disc: 5

David Oistrakh - David Oistrakh Edition (1997) (2004  Reissue) (5CD Box Set)


Béla Bartók

1. Violin Sonata No. 1 Sz. 75: 1. Allegro appassionato
2. Violin Sonata No. 1 Sz. 75: 2. Adagio
3. Violin Sonata No. 1 Sz. 75: 3. Allegro

Dmitri Shostakovich
4. Violin Sonata op. 134: 1. Andante
5. Violin Sonata op. 134: 2. Allegretto
6. Violin Sonata op. 134: 3. Largo

David Oistrakh - David Oistrakh Edition (1997) (2004  Reissue) (5CD Box Set)


Exact Audio Copy V1.3 from 2. September 2016

EAC extraction logfile from 28. September 2017, 5:30

David Oistrakh, Gennady Rozhdestvensky / Oistrakh Edition Vol. 1

Used drive : HL-DT-STDVDRAM GSA-H10N Adapter: 1 ID: 0

Read mode : Secure
Utilize accurate stream : Yes
Defeat audio cache : Yes
Make use of C2 pointers : No

Read offset correction : 667
Overread into Lead-In and Lead-Out : No
Fill up missing offset samples with silence : Yes
Delete leading and trailing silent blocks : No
Null samples used in CRC calculations : Yes
Used interface : Native Win32 interface for Win NT & 2000
Gap handling : Appended to previous track

Used output format : User Defined Encoder
Selected bitrate : 768 kBit/s
Quality : High
Add ID3 tag : No
Command line compressor : C:\Program Files (x86)\Exact Audio Copy\Flac\flac.exe
Additional command line options : -8 -V -T "ARTIST=%artist%" -T "TITLE=%title%" -T "ALBUM=%albumtitle%" -T "DATE=%year%" -T "TRACKNUMBER=%tracknr%" -T "GENRE=%genre%" -T "PERFORMER=%albuminterpret%" -T "COMPOSER=%composer%" %haslyrics%–tag-from-file=LYRICS="%lyricsfile%"%haslyrics% -T "ALBUMARTIST=%albumartist%" -T "DISCNUMBER=%cdnumber%" -T "TOTALDISCS=%totalcds%" -T "TOTALTRACKS=%numtracks%" -T "COMMENT=%comment%" %source% -o %dest%


TOC of the extracted CD

Track | Start | Length | Start sector | End sector
––––––––––––––––––––––––––––-
1 | 0:00.00 | 18:45.47 | 0 | 84421
2 | 18:45.47 | 6:00.40 | 84422 | 111461
3 | 24:46.12 | 9:54.15 | 111462 | 156026
4 | 34:40.27 | 15:08.33 | 156027 | 224159
5 | 49:48.60 | 8:43.65 | 224160 | 263449
6 | 58:32.50 | 7:33.20 | 263450 | 297444
7 | 66:05.70 | 3:32.52 | 297445 | 313396
8 | 69:38.47 | 2:13.43 | 313397 | 323414


Track 1

Filename E:\EAC\01 - Violin Concerto in D major, Op.35 - I. Allegro moderato.wav

Pre-gap length 0:00:02.00

Peak level 98.0 %
Extraction speed 3.5 X
Track quality 100.0 %
Test CRC F3CC463D
Copy CRC F3CC463D
Accurately ripped (confidence 5) [07344884] (AR v2)
Copy OK

Track 2

Filename E:\EAC\02 - Violin Concerto in D major, Op.35 - II. Canzonetta. Andante.wav

Peak level 30.3 %
Extraction speed 2.4 X
Track quality 99.9 %
Test CRC 7EE0FD1A
Copy CRC 7EE0FD1A
Accurately ripped (confidence 5) [BD240A2E] (AR v2)
Copy OK

Track 3

Filename E:\EAC\03 - Violin Concerto in D major, Op.35 - III. Finale. Allegro vivacissimo.wav

Peak level 98.0 %
Extraction speed 4.6 X
Track quality 100.0 %
Test CRC CFA25083
Copy CRC CFA25083
Accurately ripped (confidence 4) [CED7DB5C] (AR v2)
Copy OK

Track 4

Filename E:\EAC\04 - Violin Concerto in D minor, Op.47 - I. Allegro moderato.wav

Pre-gap length 0:00:10.22

Peak level 77.8 %
Extraction speed 5.3 X
Track quality 100.0 %
Test CRC 7E7CC97A
Copy CRC 7E7CC97A
Accurately ripped (confidence 5) [2057C636] (AR v2)
Copy OK

Track 5

Filename E:\EAC\05 - Violin Concerto in D minor, Op.47 - II. Adagio di molto.wav

Peak level 85.4 %
Extraction speed 5.2 X
Track quality 99.9 %
Test CRC DC84E07B
Copy CRC DC84E07B
Accurately ripped (confidence 5) [DA45B139] (AR v2)
Copy OK

Track 6

Filename E:\EAC\06 - Violin Concerto in D minor, Op.47 - III. Allegro ma non troppo.wav

Peak level 88.3 %
Extraction speed 5.9 X
Track quality 100.0 %
Test CRC 25EDB59B
Copy CRC 25EDB59B
Accurately ripped (confidence 5) [DA067D35] (AR v2)
Copy OK

Track 7

Filename E:\EAC\07 - Humoresque No.1 in D minor, Op.87 No.1.wav

Pre-gap length 0:00:10.30

Peak level 72.8 %
Extraction speed 5.4 X
Track quality 100.0 %
Test CRC 3FAE7AFB
Copy CRC 3FAE7AFB
Accurately ripped (confidence 5) [480A87CB] (AR v2)
Copy OK

Track 8

Filename E:\EAC\08 - Humoresque No.2 in D major, Op.87 No.2.wav

Peak level 69.6 %
Extraction speed 5.2 X
Track quality 100.0 %
Test CRC D766819A
Copy CRC D766819A
Accurately ripped (confidence 5) [F272E743] (AR v2)
Copy OK


All tracks accurately ripped

No errors occurred

End of status report

–– CUETools DB Plugin V2.1.6

[CTDB TOCID: Y.saQeNYH0fR1oQkuq1RjhAdQ5E-] found
Submit result: already submitted
Track | CTDB Status
1 | (56/56) Accurately ripped
2 | (56/56) Accurately ripped
3 | (54/56) Accurately ripped
4 | (56/56) Accurately ripped
5 | (55/56) Accurately ripped
6 | (56/56) Accurately ripped
7 | (53/56) Accurately ripped
8 | (53/56) Accurately ripped


==== Log checksum 72A92607C2FE264386198A04829392A25D8E4672998BCDC63464E52B5DE04E04 ====

Exact Audio Copy V1.3 from 2. September 2016

EAC extraction logfile from 26. September 2017, 22:25

David Oistrkh, Kirill Kondrashin / Oistrakh Edition Vol. 2

Used drive : HL-DT-STDVDRAM GSA-H10N Adapter: 1 ID: 0

Read mode : Secure
Utilize accurate stream : Yes
Defeat audio cache : Yes
Make use of C2 pointers : No

Read offset correction : 667
Overread into Lead-In and Lead-Out : No
Fill up missing offset samples with silence : Yes
Delete leading and trailing silent blocks : No
Null samples used in CRC calculations : Yes
Used interface : Native Win32 interface for Win NT & 2000
Gap handling : Appended to previous track

Used output format : User Defined Encoder
Selected bitrate : 768 kBit/s
Quality : High
Add ID3 tag : No
Command line compressor : C:\Program Files (x86)\Exact Audio Copy\Flac\flac.exe
Additional command line options : -8 -V -T "ARTIST=%artist%" -T "TITLE=%title%" -T "ALBUM=%albumtitle%" -T "DATE=%year%" -T "TRACKNUMBER=%tracknr%" -T "GENRE=%genre%" -T "PERFORMER=%albuminterpret%" -T "COMPOSER=%composer%" %haslyrics%–tag-from-file=LYRICS="%lyricsfile%"%haslyrics% -T "ALBUMARTIST=%albumartist%" -T "DISCNUMBER=%cdnumber%" -T "TOTALDISCS=%totalcds%" -T "TOTALTRACKS=%numtracks%" -T "COMMENT=%comment%" %source% -o %dest%


TOC of the extracted CD

Track | Start | Length | Start sector | End sector
––––––––––––––––––––––––––––-
1 | 0:00.00 | 21:47.07 | 0 | 98031
2 | 21:47.07 | 9:20.05 | 98032 | 140036
3 | 31:07.12 | 7:53.15 | 140037 | 175526
4 | 39:00.27 | 10:57.03 | 175527 | 224804
5 | 49:57.30 | 11:24.60 | 224805 | 276164
6 | 61:22.15 | 9:33.52 | 276165 | 319191


Track 1

Filename E:\EAC\01 - Violin Concerto in D major, Op.77 - I. Allegro non troppo.wav

Pre-gap length 0:00:02.00

Peak level 98.0 %
Extraction speed 3.5 X
Track quality 99.9 %
Test CRC 393A8958
Copy CRC 393A8958
Accurately ripped (confidence 6) [A0472419] (AR v2)
Copy OK

Track 2

Filename E:\EAC\02 - Violin Concerto in D major, Op.77 - II. Adagio.wav

Peak level 68.6 %
Extraction speed 4.1 X
Track quality 99.9 %
Test CRC A6D1B876
Copy CRC A6D1B876
Accurately ripped (confidence 6) [948FDAEB] (AR v2)
Copy OK

Track 3

Filename E:\EAC\03 - Violin Concerto in D major, Op.77 - III. Allegro giocoso, ma mon troppo vivace.wav

Peak level 98.0 %
Extraction speed 4.7 X
Track quality 100.0 %
Test CRC 1E7DE793
Copy CRC 1E7DE793
Accurately ripped (confidence 6) [B9E1FAC7] (AR v2)
Copy OK

Track 4

Filename E:\EAC\04 - Violin Concerto in A minor, Op.53 - I. Allegro ma non troppo.wav

Pre-gap length 0:00:10.93

Peak level 95.5 %
Extraction speed 4.9 X
Track quality 99.9 %
Test CRC C2002301
Copy CRC C2002301
Accurately ripped (confidence 6) [E3805504] (AR v2)
Copy OK

Track 5

Filename E:\EAC\05 - Violin Concerto in A minor, Op.53 - II. Adagio ma non troppo.wav

Peak level 89.9 %
Extraction speed 5.5 X
Track quality 100.0 %
Test CRC 163479EE
Copy CRC 163479EE
Accurately ripped (confidence 6) [4C855F73] (AR v2)
Copy OK

Track 6

Filename E:\EAC\06 - Violin Concerto in A minor, Op.53 - III. Finale. Allegro giocoso ma non troppo.wav

Peak level 94.8 %
Extraction speed 5.6 X
Track quality 99.9 %
Test CRC 6A91C2A0
Copy CRC 6A91C2A0
Accurately ripped (confidence 6) [926FEDB0] (AR v2)
Copy OK


All tracks accurately ripped

No errors occurred

End of status report

–– CUETools DB Plugin V2.1.6

[CTDB TOCID: xBAlHk0ccY6v2eRNX3j6vJS.z.4-] found
Submit result: xBAlHk0ccY6v2eRNX3j6vJS.z.4- has been confirmed
Track | CTDB Status
1 | (36/38) Accurately ripped
2 | (37/38) Accurately ripped
3 | (37/38) Accurately ripped
4 | (37/38) Accurately ripped
5 | (37/38) Accurately ripped
6 | (37/38) Accurately ripped


==== Log checksum 8B4CF477D1F0ABD4C83525FE08A11FD27F29BE58E2F5D6DFF7FCCD2DAC0E995D ====

Exact Audio Copy V1.3 from 2. September 2016

EAC extraction logfile from 26. September 2017, 23:31

David Oistrakh / Oistrakh Edition Vol. 3

Used drive : HL-DT-STDVDRAM GSA-H10N Adapter: 1 ID: 0

Read mode : Secure
Utilize accurate stream : Yes
Defeat audio cache : Yes
Make use of C2 pointers : No

Read offset correction : 667
Overread into Lead-In and Lead-Out : No
Fill up missing offset samples with silence : Yes
Delete leading and trailing silent blocks : No
Null samples used in CRC calculations : Yes
Used interface : Native Win32 interface for Win NT & 2000
Gap handling : Appended to previous track

Used output format : User Defined Encoder
Selected bitrate : 768 kBit/s
Quality : High
Add ID3 tag : No
Command line compressor : C:\Program Files (x86)\Exact Audio Copy\Flac\flac.exe
Additional command line options : -8 -V -T "ARTIST=%artist%" -T "TITLE=%title%" -T "ALBUM=%albumtitle%" -T "DATE=%year%" -T "TRACKNUMBER=%tracknr%" -T "GENRE=%genre%" -T "PERFORMER=%albuminterpret%" -T "COMPOSER=%composer%" %haslyrics%–tag-from-file=LYRICS="%lyricsfile%"%haslyrics% -T "ALBUMARTIST=%albumartist%" -T "DISCNUMBER=%cdnumber%" -T "TOTALDISCS=%totalcds%" -T "TOTALTRACKS=%numtracks%" -T "COMMENT=%comment%" %source% -o %dest%


TOC of the extracted CD

Track | Start | Length | Start sector | End sector
––––––––––––––––––––––––––––-
1 | 0:00.00 | 10:14.72 | 0 | 46121
2 | 10:14.72 | 3:53.38 | 46122 | 63634
3 | 14:08.35 | 2:55.60 | 63635 | 76819
4 | 17:04.20 | 4:46.27 | 76820 | 98296
5 | 21:50.47 | 2:37.55 | 98297 | 110126
6 | 24:28.27 | 2:28.63 | 110127 | 121289
7 | 26:57.15 | 2:53.00 | 121290 | 134264
8 | 29:50.15 | 2:27.35 | 134265 | 145324
9 | 32:17.50 | 2:26.37 | 145325 | 156311
10 | 34:44.12 | 2:19.08 | 156312 | 166744
11 | 37:03.20 | 1:37.72 | 166745 | 174091
12 | 38:41.17 | 1:32.50 | 174092 | 181041
13 | 40:13.67 | 2:48.73 | 181042 | 193714
14 | 43:02.65 | 2:56.30 | 193715 | 206944
15 | 45:59.20 | 3:13.05 | 206945 | 221424
16 | 49:12.25 | 4:21.02 | 221425 | 241001
17 | 53:33.27 | 3:42.08 | 241002 | 257659
18 | 57:15.35 | 2:26.27 | 257660 | 268636
19 | 59:41.62 | 4:05.73 | 268637 | 287084
20 | 63:47.60 | 3:15.15 | 287085 | 301724
21 | 67:03.00 | 6:43.40 | 301725 | 331989


Track 1

Filename E:\EAC\01 - Ciacona in G minor.wav

Pre-gap length 0:00:02.00

Peak level 50.1 %
Extraction speed 3.1 X
Track quality 100.0 %
Test CRC A718C73B
Copy CRC A718C73B
Accurately ripped (confidence 4) [DC1C67B6] (AR v2)
Copy OK

Track 2

Filename E:\EAC\02 - Melody from ''Orfeo ed Euridice''.wav

Peak level 57.3 %
Extraction speed 3.2 X
Track quality 100.0 %
Test CRC A37A4A53
Copy CRC A37A4A53
Accurately ripped (confidence 4) [A0D299C2] (AR v2)
Copy OK

Track 3

Filename E:\EAC\03 - Widmug, Op.25 No.1.wav

Peak level 85.0 %
Extraction speed 3.2 X
Track quality 100.0 %
Test CRC BCA19A3C
Copy CRC BCA19A3C
Accurately ripped (confidence 4) [048F67E8] (AR v2)
Copy OK

Track 4

Filename E:\EAC\04 - Romance in A major Op.94 No.2.wav

Peak level 97.9 %
Extraction speed 3.6 X
Track quality 100.0 %
Test CRC 313540AD
Copy CRC 313540AD
Accurately ripped (confidence 5) [E266752A] (AR v2)
Copy OK

Track 5

Filename E:\EAC\05 - Hungarian Dance No.8 in A minor.wav

Peak level 98.0 %
Extraction speed 3.5 X
Track quality 100.0 %
Test CRC 3CBE2D5C
Copy CRC 3CBE2D5C
Accurately ripped (confidence 5) [22130253] (AR v2)
Copy OK

Track 6

Filename E:\EAC\06 - Hungarian Dance No.9 in E minor.wav

Peak level 82.0 %
Extraction speed 3.6 X
Track quality 100.0 %
Test CRC 5360EC92
Copy CRC 5360EC92
Accurately ripped (confidence 5) [BBDDB0D7] (AR v2)
Copy OK

Track 7

Filename E:\EAC\07 - Hungarian Dance No.20 in D minor.wav

Peak level 66.1 %
Extraction speed 3.2 X
Track quality 99.9 %
Test CRC BD6360DB
Copy CRC BD6360DB
Accurately ripped (confidence 5) [D46BCC02] (AR v2)
Copy OK

Track 8

Filename E:\EAC\08 - Hungarian Dance No.5 in G minor.wav

Peak level 81.9 %
Extraction speed 3.8 X
Track quality 100.0 %
Test CRC 67877E96
Copy CRC 67877E96
Accurately ripped (confidence 5) [D73CF284] (AR v2)
Copy OK

Track 9

Filename E:\EAC\09 - Suite populaire espagnole - No. 1. El pano moruno.wav

Peak level 68.8 %
Extraction speed 3.8 X
Track quality 100.0 %
Test CRC E5BEAAE4
Copy CRC E5BEAAE4
Accurately ripped (confidence 5) [11412AC8] (AR v2)
Copy OK

Track 10

Filename E:\EAC\10 - Suite populaire espagnole - No. 5. Nana. Berceuse.wav

Peak level 33.4 %
Extraction speed 3.2 X
Track quality 99.9 %
Test CRC 686AA1AC
Copy CRC 686AA1AC
Accurately ripped (confidence 5) [D99DB3CF] (AR v2)
Copy OK

Track 11

Filename E:\EAC\11 - Suite populaire espagnole - No. 6. Cancion.wav

Peak level 70.2 %
Extraction speed 2.8 X
Track quality 99.8 %
Test CRC 05A77177
Copy CRC 05A77177
Accurately ripped (confidence 5) [F32906A5] (AR v2)
Copy OK

Track 12

Filename E:\EAC\12 - Suite populaire espagnole - No. 7. Polo.wav

Peak level 50.0 %
Extraction speed 3.6 X
Track quality 100.0 %
Test CRC 62F376DD
Copy CRC 62F376DD
Accurately ripped (confidence 5) [7491BA3D] (AR v2)
Copy OK

Track 13

Filename E:\EAC\13 - Suite populaire espagnole - No. 3. Asturiana.wav

Peak level 33.5 %
Extraction speed 3.5 X
Track quality 99.9 %
Test CRC 058124A2
Copy CRC 058124A2
Accurately ripped (confidence 5) [03D9EEC4] (AR v2)
Copy OK

Track 14

Filename E:\EAC\14 - Suite populaire espagnole - No. 4. Jota.wav

Peak level 73.6 %
Extraction speed 4.4 X
Track quality 100.0 %
Test CRC 3F204178
Copy CRC 3F204178
Accurately ripped (confidence 5) [9F9E0202] (AR v2)
Copy OK

Track 15

Filename E:\EAC\15 - Love Song, No.6 from ''Six Songs''.wav

Peak level 49.0 %
Extraction speed 4.5 X
Track quality 100.0 %
Test CRC 6C9457B9
Copy CRC 6C9457B9
Accurately ripped (confidence 5) [5F6089DB] (AR v2)
Copy OK

Track 16

Filename E:\EAC\16 - Andaluza, Op.37 No.5.wav

Peak level 76.7 %
Extraction speed 4.9 X
Track quality 100.0 %
Test CRC 40E59543
Copy CRC 40E59543
Accurately ripped (confidence 5) [A979FB97] (AR v2)
Copy OK

Track 17

Filename E:\EAC\17 - Passepied from ''Suite bergamasque''.wav

Peak level 54.8 %
Extraction speed 4.3 X
Track quality 99.9 %
Test CRC BAC3C56E
Copy CRC BAC3C56E
Accurately ripped (confidence 5) [E32AFE98] (AR v2)
Copy OK

Track 18

Filename E:\EAC\18 - Beau soir.wav

Peak level 52.6 %
Extraction speed 4.6 X
Track quality 100.0 %
Test CRC 49D4540A
Copy CRC 49D4540A
Accurately ripped (confidence 5) [24851A28] (AR v2)
Copy OK

Track 19

Filename E:\EAC\19 - Entr'acte from ''Raymonda'' Op.57.wav

Peak level 64.6 %
Extraction speed 5.1 X
Track quality 100.0 %
Test CRC 531DBF8E
Copy CRC 531DBF8E
Accurately ripped (confidence 5) [93B172B2] (AR v2)
Copy OK

Track 20

Filename E:\EAC\20 - Daisies, Op.38 No.3.wav

Peak level 48.7 %
Extraction speed 4.4 X
Track quality 99.9 %
Test CRC FC3FF83F
Copy CRC FC3FF83F
Accurately ripped (confidence 5) [53905E0C] (AR v2)
Copy OK

Track 21

Filename E:\EAC\21 - Vocalise, Op.34 No.14.wav

Peak level 49.4 %
Extraction speed 5.8 X
Track quality 100.0 %
Test CRC 9A3958B2
Copy CRC 9A3958B2
Accurately ripped (confidence 5) [E98A23D3] (AR v2)
Copy OK


All tracks accurately ripped

No errors occurred

End of status report

–– CUETools DB Plugin V2.1.6

[CTDB TOCID: E9Th9HZUL4bpvWIbBpVmdvA4NQM-] found
Submit result: E9Th9HZUL4bpvWIbBpVmdvA4NQM- has been confirmed
Track | CTDB Status
1 | (34/35) Accurately ripped
2 | (35/35) Accurately ripped
3 | (35/35) Accurately ripped
4 | (35/35) Accurately ripped
5 | (35/35) Accurately ripped
6 | (34/35) Accurately ripped
7 | (35/35) Accurately ripped
8 | (34/35) Accurately ripped
9 | (35/35) Accurately ripped
10 | (35/35) Accurately ripped
11 | (35/35) Accurately ripped
12 | (35/35) Accurately ripped
13 | (35/35) Accurately ripped
14 | (35/35) Accurately ripped
15 | (35/35) Accurately ripped
16 | (34/35) Accurately ripped
17 | (34/35) Accurately ripped
18 | (34/35) Accurately ripped
19 | (35/35) Accurately ripped
20 | (35/35) Accurately ripped
21 | (35/35) Accurately ripped


==== Log checksum 4DFCAC63DFFB016E9096D9E387A8F68B5BA5EB68B268DC3E07A376E254AF7585 ====

Exact Audio Copy V1.3 from 2. September 2016

EAC extraction logfile from 27. September 2017, 0:19

David Oistrakh, Sviatoslav Richter / Oistrakh Edition Vol. 4

Used drive : HL-DT-STDVDRAM GSA-H10N Adapter: 1 ID: 0

Read mode : Secure
Utilize accurate stream : Yes
Defeat audio cache : Yes
Make use of C2 pointers : No

Read offset correction : 667
Overread into Lead-In and Lead-Out : No
Fill up missing offset samples with silence : Yes
Delete leading and trailing silent blocks : No
Null samples used in CRC calculations : Yes
Used interface : Native Win32 interface for Win NT & 2000
Gap handling : Appended to previous track

Used output format : User Defined Encoder
Selected bitrate : 768 kBit/s
Quality : High
Add ID3 tag : No
Command line compressor : C:\Program Files (x86)\Exact Audio Copy\Flac\flac.exe
Additional command line options : -8 -V -T "ARTIST=%artist%" -T "TITLE=%title%" -T "ALBUM=%albumtitle%" -T "DATE=%year%" -T "TRACKNUMBER=%tracknr%" -T "GENRE=%genre%" -T "PERFORMER=%albuminterpret%" -T "COMPOSER=%composer%" %haslyrics%–tag-from-file=LYRICS="%lyricsfile%"%haslyrics% -T "ALBUMARTIST=%albumartist%" -T "DISCNUMBER=%cdnumber%" -T "TOTALDISCS=%totalcds%" -T "TOTALTRACKS=%numtracks%" -T "COMMENT=%comment%" %source% -o %dest%


TOC of the extracted CD

Track | Start | Length | Start sector | End sector
––––––––––––––––––––––––––––-
1 | 0:00.00 | 8:11.05 | 0 | 36829
2 | 8:11.05 | 5:56.20 | 36830 | 63549
3 | 14:07.25 | 5:23.10 | 63550 | 87784
4 | 19:30.35 | 8:39.00 | 87785 | 126709
5 | 28:09.35 | 5:06.52 | 126710 | 149711
6 | 33:16.12 | 3:06.65 | 149712 | 163726
7 | 36:23.02 | 6:07.08 | 163727 | 191259
8 | 42:30.10 | 6:53.15 | 191260 | 222249
9 | 49:23.25 | 8:51.50 | 222250 | 262124
10 | 58:15.00 | 7:47.67 | 262125 | 297216
11 | 66:02.67 | 6:19.18 | 297217 | 325659


Track 1

Filename E:\EAC\01 - Violin Sonata No.2 in A major, Op.100 - I. Allegro amabile.wav

Pre-gap length 0:00:02.00

Peak level 97.9 %
Extraction speed 3.0 X
Track quality 100.0 %
Test CRC 74590C52
Copy CRC 74590C52
Accurately ripped (confidence 5) [B67E5BC5] (AR v2)
Copy OK

Track 2

Filename E:\EAC\02 - Violin Sonata No.2 in A major, Op.100 - II. Andante tranquillo.wav

Peak level 97.9 %
Extraction speed 3.4 X
Track quality 100.0 %
Test CRC BD2E7A9E
Copy CRC BD2E7A9E
Accurately ripped (confidence 5) [AA2BFB52] (AR v2)
Copy OK

Track 3

Filename E:\EAC\03 - Violin Sonata No.2 in A major, Op.100 - III. Allegro grazioso (quasi Andante).wav

Peak level 98.0 %
Extraction speed 3.7 X
Track quality 100.0 %
Test CRC B6D3CF20
Copy CRC B6D3CF20
Accurately ripped (confidence 5) [C4452B93] (AR v2)
Copy OK

Track 4

Filename E:\EAC\04 - Violin Sonata No.3 in D minor, Op.108 - I. Allegro.wav

Pre-gap length 0:00:09.04

Peak level 73.3 %
Extraction speed 4.2 X
Track quality 100.0 %
Test CRC 33D91193
Copy CRC 33D91193
Accurately ripped (confidence 6) [F3836426] (AR v2)
Copy OK

Track 5

Filename E:\EAC\05 - Violin Sonata No.3 in D minor, Op.108 - II. Adagio.wav

Peak level 64.7 %
Extraction speed 4.2 X
Track quality 100.0 %
Test CRC B0C1FE99
Copy CRC B0C1FE99
Accurately ripped (confidence 6) [C1FC7CEE] (AR v2)
Copy OK

Track 6

Filename E:\EAC\06 - Violin Sonata No.3 in D minor, Op.108 - III. Un poco presto e con sentimento.wav

Peak level 61.6 %
Extraction speed 3.5 X
Track quality 99.9 %
Test CRC 19C02233
Copy CRC 19C02233
Accurately ripped (confidence 6) [871C9DE6] (AR v2)
Copy OK

Track 7

Filename E:\EAC\07 - Violin Sonata No.3 in D minor, Op.108 - IV. Presto agitato.wav

Peak level 71.2 %
Extraction speed 4.7 X
Track quality 100.0 %
Test CRC 38A5946C
Copy CRC 38A5946C
Accurately ripped (confidence 6) [581E6560] (AR v2)
Copy OK

Track 8

Filename E:\EAC\08 - Violin Sonata in A major - I. Allegretto ben moderato.wav

Pre-gap length 0:00:09.26

Peak level 69.3 %
Extraction speed 4.9 X
Track quality 100.0 %
Test CRC 43FD82A2
Copy CRC 43FD82A2
Accurately ripped (confidence 6) [39FDC19F] (AR v2)
Copy OK

Track 9

Filename E:\EAC\09 - Violin Sonata in A major - II. Allegro.wav

Peak level 68.2 %
Extraction speed 5.4 X
Track quality 100.0 %
Test CRC C29B1770
Copy CRC C29B1770
Accurately ripped (confidence 6) [A075E4D5] (AR v2)
Copy OK

Track 10

Filename E:\EAC\10 - Violin Sonata in A major - III. Recitativo-Fantasia. Ben moderato.wav

Peak level 75.4 %
Extraction speed 5.6 X
Track quality 100.0 %
Test CRC C61A060F
Copy CRC C61A060F
Accurately ripped (confidence 6) [60463CF8] (AR v2)
Copy OK

Track 11

Filename E:\EAC\11 - Violin Sonata in A major - IV. Allegretto poco mosso.wav

Peak level 64.2 %
Extraction speed 5.7 X
Track quality 100.0 %
Test CRC C93EBE3B
Copy CRC C93EBE3B
Accurately ripped (confidence 6) [965559D0] (AR v2)
Copy OK


All tracks accurately ripped

No errors occurred

End of status report

–– CUETools DB Plugin V2.1.6

[CTDB TOCID: u.k_tt23.rzocC9ui9JJb6.i8gI-] found
Submit result: u.k_tt23.rzocC9ui9JJb6.i8gI- has been confirmed
Track | CTDB Status
1 | (46/46) Accurately ripped
2 | (46/46) Accurately ripped
3 | (46/46) Accurately ripped
4 | (46/46) Accurately ripped
5 | (46/46) Accurately ripped
6 | (46/46) Accurately ripped
7 | (46/46) Accurately ripped
8 | (46/46) Accurately ripped
9 | (46/46) Accurately ripped
10 | (45/46) Accurately ripped
11 | (44/46) Accurately ripped


==== Log checksum 1E518CE6147EAA6836515764B873D3D5BA0311099F34DB1E8C0EAEBDCE8CC543 ====

Exact Audio Copy V1.3 from 2. September 2016

EAC extraction logfile from 27. September 2017, 1:01

David Oistrakh, Sviatoslav Richter / Oistrakh Edition Vol. 5

Used drive : HL-DT-STDVDRAM GSA-H10N Adapter: 1 ID: 0

Read mode : Secure
Utilize accurate stream : Yes
Defeat audio cache : Yes
Make use of C2 pointers : No

Read offset correction : 667
Overread into Lead-In and Lead-Out : No
Fill up missing offset samples with silence : Yes
Delete leading and trailing silent blocks : No
Null samples used in CRC calculations : Yes
Used interface : Native Win32 interface for Win NT & 2000
Gap handling : Appended to previous track

Used output format : User Defined Encoder
Selected bitrate : 768 kBit/s
Quality : High
Add ID3 tag : No
Command line compressor : C:\Program Files (x86)\Exact Audio Copy\Flac\flac.exe
Additional command line options : -8 -V -T "ARTIST=%artist%" -T "TITLE=%title%" -T "ALBUM=%albumtitle%" -T "DATE=%year%" -T "TRACKNUMBER=%tracknr%" -T "GENRE=%genre%" -T "PERFORMER=%albuminterpret%" -T "COMPOSER=%composer%" %haslyrics%–tag-from-file=LYRICS="%lyricsfile%"%haslyrics% -T "ALBUMARTIST=%albumartist%" -T "DISCNUMBER=%cdnumber%" -T "TOTALDISCS=%totalcds%" -T "TOTALTRACKS=%numtracks%" -T "COMMENT=%comment%" %source% -o %dest%


TOC of the extracted CD

Track | Start | Length | Start sector | End sector
––––––––––––––––––––––––––––-
1 | 0:00.00 | 12:12.65 | 0 | 54964
2 | 12:12.65 | 10:48.70 | 54965 | 103634
3 | 23:01.60 | 9:41.72 | 103635 | 147281
4 | 32:43.57 | 10:16.15 | 147282 | 193496
5 | 42:59.72 | 6:36.38 | 193497 | 223234
6 | 49:36.35 | 14:04.37 | 223235 | 286571


Track 1

Filename E:\EAC\01 - Violin Sonata No.1, Sz.75 - I. Allegro appassionato.wav

Pre-gap length 0:00:02.00

Peak level 94.2 %
Extraction speed 3.4 X
Track quality 100.0 %
Test CRC 606367E0
Copy CRC 606367E0
Accurately ripped (confidence 7) [83336BA5] (AR v2)
Copy OK

Track 2

Filename E:\EAC\02 - Violin Sonata No.1, Sz.75 - II. Adagio.wav

Peak level 77.5 %
Extraction speed 4.0 X
Track quality 100.0 %
Test CRC D7C196A4
Copy CRC D7C196A4
Accurately ripped (confidence 7) [C0749EE3] (AR v2)
Copy OK

Track 3

Filename E:\EAC\03 - Violin Sonata No.1, Sz.75 - III. Allegro.wav

Peak level 98.0 %
Extraction speed 4.3 X
Track quality 99.9 %
Test CRC 3DE00ED6
Copy CRC 3DE00ED6
Accurately ripped (confidence 7) [3C65735A] (AR v2)
Copy OK

Track 4

Filename E:\EAC\04 - Violin Sonata Op.134 - I. Andante.wav

Pre-gap length 0:00:08.62

Peak level 61.3 %
Extraction speed 4.8 X
Track quality 99.9 %
Test CRC E6FD5248
Copy CRC E6FD5248
Accurately ripped (confidence 7) [7AC496DB] (AR v2)
Copy OK

Track 5

Filename E:\EAC\05 - Violin Sonata Op.134 - II. Allegretto.wav

Peak level 66.1 %
Extraction speed 5.3 X
Track quality 100.0 %
Test CRC BF92BEEE
Copy CRC BF92BEEE
Accurately ripped (confidence 7) [C7574CB5] (AR v2)
Copy OK

Track 6

Filename E:\EAC\06 - Violin Sonata Op.134 - III. Largo.wav

Peak level 68.9 %
Extraction speed 5.9 X
Track quality 100.0 %
Test CRC 6BB260FA
Copy CRC 6BB260FA
Accurately ripped (confidence 7) [CB9E81F4] (AR v2)
Copy OK


All tracks accurately ripped

No errors occurred

End of status report

–– CUETools DB Plugin V2.1.6

[CTDB TOCID: 8O.AKovaiF.jgQM92SNhUFmVL5k-] found
Submit result: 8O.AKovaiF.jgQM92SNhUFmVL5k- has been confirmed
Track | CTDB Status
1 | (31/31) Accurately ripped
2 | (31/31) Accurately ripped
3 | (31/31) Accurately ripped
4 | (31/31) Accurately ripped
5 | (31/31) Accurately ripped
6 | (31/31) Accurately ripped


==== Log checksum 3EEEFB0D85280579720C6F7814A65A6270DE4500091C20E44C46B2741182E24F ====


Thanks to the Original customer.