Tags
Language
Tags

Dawn Of Midi - Dysnomia (2013) {Thirsty Ear THI57206 2}

Posted By:
Dawn Of Midi - Dysnomia (2013) {Thirsty Ear THI57206 2}

Dawn Of Midi - Dysnomia (2013) {Thirsty Ear THI57206 2}
EAC rip (secure mode) | FLAC (tracks)+CUE+LOG -> 229 Mb | MP3 @320 -> 111 Mb
Full Artwork @ 300 dpi (jpg) -> 13 Mb | 5% repair rar
© 2013 Thirsty Ear | THI 57206.2
Jazz / Experimental / Post-Minimalism / Acoustic

Rich wonderful records sometimes come in perplexing packages, and somewhere near the top of that list must be the dizzying Dysnomia. Here, a Brooklyn group with an EDM-styled name that's shaped like a jazz trio (piano, standup bass, and drums) plays music in the minimalist style of classical composers Glass, Reich, and Adams, but there are inflections right out of the world of indie rock, with drumbeats shooting out unexpectedly and dramatically. Dance music is an influence too, as this is a minimalist joint to shake your hips to, and most tracks build into grand, trance-inducing whirlwinds, making a random needle drop unrepresentative of the album's power. Strap in, tune out, tap your feet, and let the loops take over.

Musicians
Drums Qasim Naqvi
Bass Aakaash Israni
Piano Amino Belyamani

Tracklist:
01 Io 06:03
02 Sinope 06:53
03 Atlas 06:37
04 Nix 03:39
05 Moon 05:04
06 Ymir 04:27
07 Ijiraq 05:22
08 Algol 04:16
09 Dysnomia 04:14

Exact Audio Copy V1.0 beta 3 from 29. August 2011

EAC extraction logfile from 10. January 2015, 14:30

Dawn Of Midi / Dysnomia

Used drive : SONY DVD RW DRU-810A Adapter: 1 ID: 0

Read mode : Secure
Utilize accurate stream : Yes
Defeat audio cache : Yes
Make use of C2 pointers : No

Read offset correction : 618
Overread into Lead-In and Lead-Out : No
Fill up missing offset samples with silence : Yes
Delete leading and trailing silent blocks : No
Null samples used in CRC calculations : Yes
Used interface : Native Win32 interface for Win NT & 2000
Gap handling : Appended to previous track

Used output format : User Defined Encoder
Selected bitrate : 128 kBit/s
Quality : High
Add ID3 tag : No
Command line compressor : C:\Program Files (x86)\Exact Audio Copy\Flac\flac.exe
Additional command line options : -8 -V -T "ARTIST=%artist%" -T "TITLE=%title%" -T "ALBUM=%albumtitle%" -T "DATE=%year%" -T "TRACKNUMBER=%tracknr%" -T "TOTALTRACKS=%numtracks%" -T "GENRE=%genre%" -T "ALBUMARTIST=%albumartist%" -T "ALBUM ARTIST=%albumartist%" -T "COMMENT=EAC Secure Mode, Test & Copy, AccurateRip, FLAC -8" %source%


TOC of the extracted CD

Track | Start | Length | Start sector | End sector
––––––––––––––––––––––––––––-
1 | 0:00.00 | 6:04.09 | 0 | 27308
2 | 6:04.09 | 6:52.64 | 27309 | 58272
3 | 12:56.73 | 6:37.51 | 58273 | 88098
4 | 19:34.49 | 3:38.50 | 88099 | 104498
5 | 23:13.24 | 5:04.20 | 104499 | 127318
6 | 28:17.44 | 4:26.49 | 127319 | 147317
7 | 32:44.18 | 5:22.13 | 147318 | 171480
8 | 38:06.31 | 4:16.22 | 171481 | 190702
9 | 42:22.53 | 4:15.44 | 190703 | 209871


Track 1

Filename F:\New Rips\Dawn Of Midi - Dysnomia (2013) [FLAC]\01 - Io.wav

Pre-gap length 0:00:02.00

Peak level 99.9 %
Extraction speed 4.6 X
Track quality 100.0 %
Test CRC 65F9D506
Copy CRC 65F9D506
Accurately ripped (confidence 11) [40AAFF8A] (AR v2)
Copy OK

Track 2

Filename F:\New Rips\Dawn Of Midi - Dysnomia (2013) [FLAC]\02 - Sinope.wav

Peak level 99.9 %
Extraction speed 5.4 X
Track quality 100.0 %
Test CRC 9D708298
Copy CRC 9D708298
Accurately ripped (confidence 11) [9BA14ADE] (AR v2)
Copy OK

Track 3

Filename F:\New Rips\Dawn Of Midi - Dysnomia (2013) [FLAC]\03 - Atlas.wav

Peak level 99.9 %
Extraction speed 6.1 X
Track quality 100.0 %
Test CRC 47D256D2
Copy CRC 47D256D2
Accurately ripped (confidence 11) [05DC0FED] (AR v2)
Copy OK

Track 4

Filename F:\New Rips\Dawn Of Midi - Dysnomia (2013) [FLAC]\04 - Nix.wav

Peak level 99.9 %
Extraction speed 6.1 X
Track quality 100.0 %
Test CRC EB7C005C
Copy CRC EB7C005C
Accurately ripped (confidence 11) [13080935] (AR v2)
Copy OK

Track 5

Filename F:\New Rips\Dawn Of Midi - Dysnomia (2013) [FLAC]\05 - Moon.wav

Peak level 99.9 %
Extraction speed 6.7 X
Track quality 100.0 %
Test CRC 767CFAC3
Copy CRC 767CFAC3
Accurately ripped (confidence 11) [FED92E0A] (AR v2)
Copy OK

Track 6

Filename F:\New Rips\Dawn Of Midi - Dysnomia (2013) [FLAC]\06 - Ymir.wav

Peak level 99.9 %
Extraction speed 6.9 X
Track quality 100.0 %
Test CRC 078E5F72
Copy CRC 078E5F72
Accurately ripped (confidence 11) [76BAA70F] (AR v2)
Copy OK

Track 7

Filename F:\New Rips\Dawn Of Midi - Dysnomia (2013) [FLAC]\07 - Ijiraq.wav

Peak level 99.9 %
Extraction speed 7.4 X
Track quality 100.0 %
Test CRC FD52984D
Copy CRC FD52984D
Accurately ripped (confidence 11) [74323FDE] (AR v2)
Copy OK

Track 8

Filename F:\New Rips\Dawn Of Midi - Dysnomia (2013) [FLAC]\08 - Algol.wav

Peak level 99.9 %
Extraction speed 6.4 X
Track quality 99.9 %
Test CRC 5D304FE3
Copy CRC 5D304FE3
Accurately ripped (confidence 11) [B5A8EDE8] (AR v2)
Copy OK

Track 9

Filename F:\New Rips\Dawn Of Midi - Dysnomia (2013) [FLAC]\09 - Dysnomia.wav

Peak level 99.9 %
Extraction speed 7.7 X
Track quality 100.0 %
Test CRC BE47F56A
Copy CRC BE47F56A
Accurately ripped (confidence 11) [A0349687] (AR v2)
Copy OK


All tracks accurately ripped

No errors occurred

End of status report

–– CUETools DB Plugin V2.1.3

[CTDB TOCID: R3yFDvZAZH0m2tf8032LiBl0xeI-] found, Submit result: R3yFDvZAZH0m2tf8032LiBl0xeI- has been confirmed
[e05b367a] (11/11) Accurately ripped


==== Log checksum 745CF1A139D4D23EE74E80C575E7AFEAED40104749EF5BB9D3D9E25ED83A03F2 ====


Dawn Of Midi - Dysnomia (2013) {Thirsty Ear THI57206 2}

Dawn Of Midi - Dysnomia (2013) {Thirsty Ear THI57206 2}



===