Subcategories

Descendents - Everything Sucks (FLAC)

Posted By: zeus2zeus
Descendents - Everything Sucks (FLAC)

Descendents - Everything Sucks
EAC Rip | FLAC tracks | cue + log + m3u | 220MB | 1% Rec. | Covers
Label: Epitaph | Punk + Alternative | Release: Sept. 24, 1996
*Source: Personal cd collection*

The punk legends long-awaited return to glory. A ripping album.


Descendents - Everything Sucks (FLAC)


To hear it told, the reason why yet another Descendents reunion happened might have been because Epitaph wasn't going to sign All on their own. Then again, it all depends on who one talks to. Regardless of rationale or the nagging suspicion that the mid-'90s breakthrough of Green Day and the Offspring was the only reason this album got recorded, one fact remains: take this out of its surrounding context and this was and is a prime Descendents album. All the humor and heart-on-sleeve showcasing one could hope for are here, and if the band is essentially just All with Aukerman back on vocals, said band had been playing the old Descendents classics for long enough to know their way around great pop-punk, straight up. Aukerman's not the snot-nosed brat from Milo Goes to College anymore, of course, but as the logical continuation of his half-goofy/half-emotional persona from the mid-'80s he's more than fine. All it takes to demonstrate that is to hear the great, affecting "I'm the One," a perfect tug-the-heartstrings hooky roar, immediately followed by the half-minute long jokey romp "Coffee Mug." All the band members write one thing or another throughout, an admirable democracy that follows the everyone-does-something approach found on earlier albums, and the hits outweigh the misses – anyone dismissing this as just like any other pop-punk around misses the point that these characters helped found it as much as anyone! That the Descendents aren't interested in simply rehashing the past comes up more than once. Consider "Caught," which uses certain allegations about President Clinton (at least the earlier ones) as a starting point on responsibility and truth, and the just wistful and wondering enough "When I Get Old" ("will I still hate the cops/and have no class?"). A welcome, wonderful return to action.~ ~ All Music Guide

Tracklist:

01. Everything Sux
02. I'm the One
03. Coffee Mug
04. Rotting Out
05. Sick-O-Me
06. Caught
07. When I Get Old
08. Doghouse
09. She Loves Me
10. Hateful Notebook
11. We
12. Eunuch Boy
13. This Place
14. I Won't Let Me
15. Thank You

Exact Audio Copy V0.99 prebeta 5 from 4. May 2009

EAC extraction logfile from 27. December 2009, 13:29

Descendents / Everything Sucks

Used drive : ATAPI DVD A DH20A4H Adapter: 1 ID: 0

Read mode : Secure
Utilize accurate stream : Yes
Defeat audio cache : Yes
Make use of C2 pointers : No

Read offset correction : 6
Overread into Lead-In and Lead-Out : No
Fill up missing offset samples with silence : Yes
Delete leading and trailing silent blocks : No
Null samples used in CRC calculations : No
Used interface : Native Win32 interface for Win NT & 2000
Gap handling : Appended to previous track

Used output format : User Defined Encoder
Selected bitrate : 768 kBit/s
Quality : High
Add ID3 tag : No
Command line compressor : C:\Program Files\Exact Audio Copy\FLAC\FLAC.EXE
Additional command line options : -V -8 -T "artist=%a" -T "title=%t" -T "album=%g" -T "date=%y" -T "tracknumber=%n" -T "genre=%m" %s


TOC of the extracted CD

Track | Start | Length | Start sector | End sector
––––––––––––––––––––––––––––-
1 | 0:00.32 | 1:30.15 | 32 | 6796
2 | 1:30.47 | 2:15.10 | 6797 | 16931
3 | 3:45.57 | 0:34.43 | 16932 | 19524
4 | 4:20.25 | 1:57.55 | 19525 | 28354
5 | 6:18.05 | 1:46.15 | 28355 | 36319
6 | 8:04.20 | 1:47.65 | 36320 | 44409
7 | 9:52.10 | 2:29.45 | 44410 | 55629
8 | 12:21.55 | 1:47.20 | 55630 | 63674
9 | 14:09.00 | 2:33.67 | 63675 | 75216
10 | 16:42.67 | 2:24.28 | 75217 | 86044
11 | 19:07.20 | 2:36.12 | 86045 | 97756
12 | 21:43.32 | 0:19.70 | 97757 | 99251
13 | 22:03.27 | 1:17.23 | 99252 | 105049
14 | 23:20.50 | 3:07.27 | 105050 | 119101
15 | 26:28.02 | 4:30.13 | 119102 | 139364


Track 1

Filename C:\EAC Extraction Directory\01. Descendents - Everything Sux (Everything Sucks).wav

Pre-gap length 0:00:02.32

Peak level 99.9 %
Track quality 100.0 %
Copy CRC 5DA5623C
Accurately ripped (confidence 27) [C5FECCC7]
Copy OK

Track 2

Filename C:\EAC Extraction Directory\02. Descendents - I'm The One (Everything Sucks).wav

Pre-gap length 0:00:00.15

Peak level 99.9 %
Track quality 99.9 %
Copy CRC B3E5890B
Accurately ripped (confidence 26) [B48C0F17]
Copy OK

Track 3

Filename C:\EAC Extraction Directory\03. Descendents - Coffee Mug (Everything Sucks).wav

Peak level 99.9 %
Track quality 100.0 %
Copy CRC FDB7FD87
Accurately ripped (confidence 27) [788DA8D2]
Copy OK

Track 4

Filename C:\EAC Extraction Directory\04. Descendents - Rotting Out (Everything Sucks).wav

Peak level 99.9 %
Track quality 100.0 %
Copy CRC 44F1E778
Accurately ripped (confidence 27) [8CA1A5B1]
Copy OK

Track 5

Filename C:\EAC Extraction Directory\05. Descendents - Sick-O-Me (Everything Sucks).wav

Pre-gap length 0:00:00.38

Peak level 99.9 %
Track quality 100.0 %
Copy CRC 13067FF8
Accurately ripped (confidence 27) [3834BAE4]
Copy OK

Track 6

Filename C:\EAC Extraction Directory\06. Descendents - Caught (Everything Sucks).wav

Peak level 99.9 %
Track quality 100.0 %
Copy CRC 9E9D9111
Accurately ripped (confidence 27) [E861E3A5]
Copy OK

Track 7

Filename C:\EAC Extraction Directory\07. Descendents - When I Get Old (Everything Sucks).wav

Pre-gap length 0:00:00.10

Peak level 99.9 %
Track quality 100.0 %
Copy CRC F5B5D594
Accurately ripped (confidence 26) [488726DB]
Copy OK

Track 8

Filename C:\EAC Extraction Directory\08. Descendents - Doghouse (Everything Sucks).wav

Pre-gap length 0:00:00.65

Peak level 99.9 %
Track quality 99.9 %
Copy CRC D912CB2F
Accurately ripped (confidence 27) [61709289]
Copy OK

Track 9

Filename C:\EAC Extraction Directory\09. Descendents - She Loves Me (Everything Sucks).wav

Pre-gap length 0:00:00.03

Peak level 99.9 %
Track quality 100.0 %
Copy CRC A48F3E00
Accurately ripped (confidence 27) [FD6EAF35]
Copy OK

Track 10

Filename C:\EAC Extraction Directory\10. Descendents - Hateful Notebook (Everything Sucks).wav

Pre-gap length 0:00:00.25

Peak level 99.9 %
Track quality 100.0 %
Copy CRC 233DECED
Accurately ripped (confidence 27) [10EC51EC]
Copy OK

Track 11

Filename C:\EAC Extraction Directory\11. Descendents - We (Everything Sucks).wav

Peak level 99.9 %
Track quality 100.0 %
Copy CRC A9F5FFCA
Accurately ripped (confidence 27) [E8BEA9EC]
Copy OK

Track 12

Filename C:\EAC Extraction Directory\12. Descendents - Eunuch Boy (Everything Sucks).wav

Pre-gap length 0:00:00.57

Peak level 99.9 %
Track quality 99.4 %
Copy CRC 6B2E76C6
Accurately ripped (confidence 27) [E3F5AEF9]
Copy OK

Track 13

Filename C:\EAC Extraction Directory\13. Descendents - This Place (Everything Sucks).wav

Peak level 99.9 %
Track quality 100.0 %
Copy CRC A7DADF9F
Accurately ripped (confidence 27) [E83ED9A3]
Copy OK

Track 14

Filename C:\EAC Extraction Directory\14. Descendents - I Won't Let Me (Everything Sucks).wav

Peak level 99.9 %
Track quality 100.0 %
Copy CRC F5761037
Accurately ripped (confidence 27) [7E3E04A8]
Copy OK

Track 15

Filename C:\EAC Extraction Directory\15. Descendents - Thank You (Everything Sucks).wav

Pre-gap length 0:00:00.63

Peak level 99.9 %
Track quality 100.0 %
Copy CRC 96DBBB39
Accurately ripped (confidence 25) [A700FAF5]
Copy OK


All tracks accurately ripped

No errors occurred

End of status report


- - - - - - - - - - - - - - - - - - - - - - - - - - - - - - - - - -

***RapidShare Links***

Sux pt.1
Sux pt.2

*Password - ->> Argento

- - - - - - - - - - - - - - - - - - - - - - - - - - - - - - - - - - - - -


Descendents - Everything Sucks (FLAC)

*Posted by zeus2zeus

***No Mirrors Please***


*More excellent music, films, etc. - ->> My Blog

*Enjoy this great album!