Subcategories

Dietrich Buxtehude - Complete Works for Organ, Volume 3 - Bine Bryndorf (2005) {Dacapo 8.226023}

Posted By: ruskaval
Dietrich Buxtehude - Complete Works for Organ, Volume 3 - Bine Bryndorf (2005) {Dacapo 8.226023}

Dietrich Buxtehude - Complete Works for Organ, Volume 3 - Bine Bryndorf (2005) {Dacapo 8.226023}
EAC rip (secure mode) | FLAC (tracks)+CUE+LOG -> 339 Mb | MP3 @320 -> 169 Mb
Full Artwork @ 300 dpi (jpg) -> 30 Mb | 5% repair rar
© 2005 Dacapo | 8.226023
Classical / Baroque / Organ

Dietrich Buxtehude's organ works are today in the standard repertoire for organists all over the world, but this is the first time an organist has engaged so intimately with Buxtehude by using the very instrument on which the works were composed. Dacapo Records' new Buxtehude series will consist of a total of six CDs, and besides the St. Mary's Church in Elsinore they will be recorded in the other two churches where the composer was employed, the S:ta Maria Church in Helsingborg and the Marienkirche in Lübeck.
Dietrich Buxtehude - Complete Works for Organ, Volume 3 - Bine Bryndorf (2005) {Dacapo 8.226023}

With this third volume, Danish organist Bine Bryndorf continues her ambitious project to record Dietrich Buxtehude's complete organ works for Dacapo. Unlike the first two well-received programs (type Q7355 and Q7784 in Search Reviews) where Bryndorf performed on the renowned "Great Buxtehude Organ" at St. Mary's church in Elsinore Denmark, this time she opts for a more modest-sized, recently constructed instrument built by Robert Gustavsson and associates for St. Mary's Church in Helsingborg, Sweden–an organ arguably better suited to Bryndorf's overall interpretive and stylistic approach. For instance, her tendency to emphasize the chromatic and melodic potential of the works is more easily facilitated and fully realized in this more intimate setting. The chorale preludes "sing" with greater clarity, while the often wild freestyle nature of the four Praeludia, while viscerally suffering somewhat compared to those heard on her earlier volumes, here sound more texturally detailed and chromatically varied. Her stirring conclusion to the first Praeludium in G minor is particularly ravishing.

Unfortunately, there are moments where Bryndorf–perhaps in an admirable effort to more fully explore the beauty and complexity of these gems–becomes overly precious. Her performances of Ein feste Burg ist unser Gott BuxWV 184 and Durch Adams Fall ist ganz verderbt BuxWV 183 seem unnecessarily slow compared with the equally evocative, more judiciously-paced accounts by Michel Chapuis (Valois). However, these instances are few and detract little from Bryndorf's otherwise excellent achievement. –John Greene, ClassicsToday.com
Dietrich Buxtehude - Complete Works for Organ, Volume 3 - Bine Bryndorf (2005) {Dacapo 8.226023}


dacapo-records.dk INFO

Personnel:
Bine Bryndorf - organ

Recorded in St. Mary's Church, Helsingborg, on 17-18 November 2003

Works on This Recording

1.
Praeludium for Keyboard in C major, BuxWV 138 by Dietrich Buxtehude
Performer: Bine Bryndorf (Organ)
Period: Baroque
Written: Germany
Venue: St Mary Church, Hälsingborg, Sweden
Length: 4 Minutes 2 Secs.
Notes: St Mary Church, Hälsingborg, Sweden (11/17/2003 - 11/18/2003)
2.
Ein' feste Burg ist unser Gott, BuxWV 184 by Dietrich Buxtehude
Performer: Bine Bryndorf (Organ)
Period: Baroque
Written: Germany
Venue: St Mary Church, Hälsingborg, Sweden
Length: 3 Minutes 38 Secs.
Notes: St Mary Church, Hälsingborg, Sweden (11/17/2003 - 11/18/2003)
3.
Es spricht der unweisen Mund wohl, BuxWV 187 by Dietrich Buxtehude
Performer: Bine Bryndorf (Organ)
Period: Baroque
Written: Germany
Venue: St Mary Church, Hälsingborg, Sweden
Length: 3 Minutes 6 Secs.
Notes: St Mary Church, Hälsingborg, Sweden (11/17/2003 - 11/18/2003)
4.
Erhalt uns, Herr, bei deinem Wort, BuxWV 185 by Dietrich Buxtehude
Performer: Bine Bryndorf (Organ)
Period: Baroque
Written: Germany
Venue: St Mary Church, Hälsingborg, Sweden
Length: 2 Minutes 1 Secs.
Notes: St Mary Church, Hälsingborg, Sweden (11/17/2003 - 11/18/2003)
5.
Toccata for keyboard in G major, BuxWV 164 by Dietrich Buxtehude
Performer: Bine Bryndorf (Organ)
Period: Baroque
Written: circa 1690; Germany
Venue: St Mary Church, Hälsingborg, Sweden
Length: 2 Minutes 43 Secs.
Notes: St Mary Church, Hälsingborg, Sweden (11/17/2003 - 11/18/2003)
6.
Praeludium for Keyboard in A minor, BuxWV 158 by Dietrich Buxtehude
Performer: Bine Bryndorf (Organ)
Venue: St Mary Church, Hälsingborg, Sweden
Length: 4 Minutes 45 Secs.
Notes: St Mary Church, Hälsingborg, Sweden (11/17/2003 - 11/18/2003)
7.
Durch Adams Fall ist ganz verderbt, BuxWV 183 by Dietrich Buxtehude
Performer: Bine Bryndorf (Organ)
Period: Baroque
Written: Germany
Venue: St Mary Church, Hälsingborg, Sweden
Length: 4 Minutes 4 Secs.
Notes: St Mary Church, Hälsingborg, Sweden (11/17/2003 - 11/18/2003)
8.
Herr Christ, der einig Gottes Sohn, BuxWV 191 by Dietrich Buxtehude
Performer: Bine Bryndorf (Organ)
Period: Baroque
Written: Germany
Venue: St Mary Church, Hälsingborg, Sweden
Length: 2 Minutes 55 Secs.
Notes: St Mary Church, Hälsingborg, Sweden (11/17/2003 - 11/18/2003)
9.
Herr Christ, der einig Gottes Sohn, BuxWV 192 by Dietrich Buxtehude
Performer: Bine Bryndorf (Organ)
Period: Baroque
Written: Germany
Venue: St Mary Church, Hälsingborg, Sweden
Length: 3 Minutes 8 Secs.
Notes: St Mary Church, Hälsingborg, Sweden (11/17/2003 - 11/18/2003)
10.
Es ist das Heil uns kommen her, BuxWV 186 by Dietrich Buxtehude
Performer: Bine Bryndorf (Organ)
Period: Baroque
Written: Germany
Venue: St Mary Church, Hälsingborg, Sweden
Length: 3 Minutes 1 Secs.
Notes: St Mary Church, Hälsingborg, Sweden (11/17/2003 - 11/18/2003)
11.
Canzonetta for Organ in G major, BuxWV 172 by Dietrich Buxtehude
Performer: Bine Bryndorf (Organ)
Period: Baroque
Written: Germany
Venue: St Mary Church, Hälsingborg, Sweden
Length: 2 Minutes 6 Secs.
Notes: St Mary Church, Hälsingborg, Sweden (11/17/2003 - 11/18/2003)
12.
Canzonetta for Organ in A minor, BuxWV 225 by Dietrich Buxtehude
Performer: Bine Bryndorf (Organ)
Period: Baroque
Written: Germany
Venue: St Mary Church, Hälsingborg, Sweden
Length: 2 Minutes 6 Secs.
Notes: St Mary Church, Hälsingborg, Sweden (11/17/2003 - 11/18/2003)
13.
Canzonetta for Organ in G minor, BuxWV 173 by Dietrich Buxtehude
Performer: Bine Bryndorf (Organ)
Period: Baroque
Written: Germany
Venue: St Mary Church, Hälsingborg, Sweden
Length: 1 Minutes 39 Secs.
Notes: St Mary Church, Hälsingborg, Sweden (11/17/2003 - 11/18/2003)
14.
Praeludium for Keyboard in G minor, BuxWV 150 by Dietrich Buxtehude
Performer: Bine Bryndorf (Organ)
Period: Baroque
Venue: St Mary Church, Hälsingborg, Sweden
Length: 6 Minutes 55 Secs.
Notes: St Mary Church, Hälsingborg, Sweden (11/17/2003 - 11/18/2003)
15.
Kommt her zu mir, spricht Gottes Sohn, BuxWV 201 by Dietrich Buxtehude
Performer: Bine Bryndorf (Organ)
Period: Baroque
Written: Germany
Venue: St Mary Church, Hälsingborg, Sweden
Length: 3 Minutes 12 Secs.
Notes: St Mary Church, Hälsingborg, Sweden (11/17/2003 - 11/18/2003)
16.
Herr Jesu Christ, ich weiss gar wohl, BuxWV 193 by Dietrich Buxtehude
Performer: Bine Bryndorf (Organ)
Period: Baroque
Written: Germany
Venue: St Mary Church, Hälsingborg, Sweden
Length: 3 Minutes 26 Secs.
Notes: St Mary Church, Hälsingborg, Sweden (11/17/2003 - 11/18/2003)
17.
Vater unser im Himmelreich, BuxWV 219 by Dietrich Buxtehude
Performer: Bine Bryndorf (Organ)
Period: Baroque
Written: Germany
Venue: St Mary Church, Hälsingborg, Sweden
Length: 3 Minutes 11 Secs.
Notes: St Mary Church, Hälsingborg, Sweden (11/17/2003 - 11/18/2003)
18.
Toccata for Keyboard in F major, BuxWV 156 by Dietrich Buxtehude
Performer: Bine Bryndorf (Organ)
Venue: St Mary Church, Hälsingborg, Sweden
Length: 7 Minutes 59 Secs.
Notes: St Mary Church, Hälsingborg, Sweden (11/17/2003 - 11/18/2003)
19.
Praeludium for keyboard in G minor, BuxWV 163 by Dietrich Buxtehude
Performer: Bine Bryndorf (Organ)
Period: Baroque
Written: circa 1690; Germany
Venue: St Mary Church, Hälsingborg, Sweden
Length: 7 Minutes 26 Secs.
Notes: St Mary Church, Hälsingborg, Sweden (11/17/2003 - 11/18/2003)

Exact Audio Copy V1.3 from 2. September 2016

EAC extraction logfile from 14. November 2016, 22:06

Dietrich Buxtehude; Bine Bryndorf / The Complete Organ Works

Used drive : HL-DT-STBD-RE BH12LS38 Adapter: 1 ID: 0

Read mode : Secure
Utilize accurate stream : Yes
Defeat audio cache : Yes
Make use of C2 pointers : No

Read offset correction : 667
Overread into Lead-In and Lead-Out : No
Fill up missing offset samples with silence : Yes
Delete leading and trailing silent blocks : No
Null samples used in CRC calculations : Yes
Used interface : Native Win32 interface for Win NT & 2000
Gap handling : Appended to previous track

Used output format : User Defined Encoder
Selected bitrate : 1024 kBit/s
Quality : High
Add ID3 tag : No
Command line compressor : J:\Documents\Utilities\Audio\FLAC\flac.exe
Additional command line options : -8 -V -T "ARTIST=%artist%" -T "TITLE=%title%" -T "ALBUM=%albumtitle%" -T "DATE=%year%" -T "TRACKNUMBER=%tracknr%" -T "GENRE=%genre%" -T "COMPOSER=%composer%" %haslyrics%–tag-from-file=LYRICS="%lyricsfile%"%haslyrics% -T "ALBUMARTIST=%albumartist%" -T "DISCNUMBER=%cdnumber%" -T "TOTALDISCS=%totalcds%" -T "TOTALTRACKS=%numtracks%" -T "COMMENT=%comment%" %source% -o %dest%


TOC of the extracted CD

Track | Start | Length | Start sector | End sector
––––––––––––––––––––––––––––-
1 | 0:00.00 | 4:02.12 | 0 | 18161
2 | 4:02.12 | 3:38.62 | 18162 | 34573
3 | 7:40.74 | 3:06.30 | 34574 | 48553
4 | 10:47.29 | 2:01.68 | 48554 | 57696
5 | 12:49.22 | 7:26.08 | 57697 | 91154
6 | 20:15.30 | 2:43.55 | 91155 | 103434
7 | 22:59.10 | 4:45.48 | 103435 | 124857
8 | 27:44.58 | 4:04.25 | 124858 | 143182
9 | 31:49.08 | 2:55.64 | 143183 | 156371
10 | 34:44.72 | 3:08.00 | 156372 | 170471
11 | 37:52.72 | 3:01.53 | 170472 | 184099
12 | 40:54.50 | 2:06.46 | 184100 | 193595
13 | 43:01.21 | 2:06.06 | 193596 | 203051
14 | 45:07.27 | 1:39.35 | 203052 | 210511
15 | 46:46.62 | 6:55.73 | 210512 | 241709
16 | 53:42.60 | 3:12.70 | 241710 | 256179
17 | 56:55.55 | 3:26.56 | 256180 | 271685
18 | 60:22.36 | 3:11.19 | 271686 | 286029
19 | 63:33.55 | 7:59.19 | 286030 | 321973


Track 1

Filename J:\Process\Music\Buxtehude (Bryndorf)\Disc 3\01 - Dietrich Buxtehude - Praeludium in C major, BuxWV 138.wav

Pre-gap length 0:00:02.00

Peak level 79.7 %
Extraction speed 1.2 X
Track quality 100.0 %
Test CRC 81148B03
Copy CRC 81148B03
Accurately ripped (confidence 7) [C4ED0079] (AR v2)
Copy OK

Track 2

Filename J:\Process\Music\Buxtehude (Bryndorf)\Disc 3\02 - Dietrich Buxtehude - Ein feste Burg ist unser Gott, BuxWV 184.wav

Pre-gap length 0:00:02.88

Peak level 80.0 %
Extraction speed 1.3 X
Track quality 100.0 %
Test CRC 465D1602
Copy CRC 465D1602
Accurately ripped (confidence 7) [8F738D2A] (AR v2)
Copy OK

Track 3

Filename J:\Process\Music\Buxtehude (Bryndorf)\Disc 3\03 - Dietrich Buxtehude - Es spricht der Unweisen Mund wohl, BuxWV 187.wav

Pre-gap length 0:00:02.14

Peak level 45.3 %
Extraction speed 1.4 X
Track quality 100.0 %
Test CRC 3D124E30
Copy CRC 3D124E30
Accurately ripped (confidence 7) [B6CC494F] (AR v2)
Copy OK

Track 4

Filename J:\Process\Music\Buxtehude (Bryndorf)\Disc 3\04 - Dietrich Buxtehude - Erhalt uns, Herr, bei deinem Wort, BuxWV 185.wav

Pre-gap length 0:00:00.96

Peak level 48.3 %
Extraction speed 1.3 X
Track quality 100.0 %
Test CRC 697A0D81
Copy CRC 697A0D81
Accurately ripped (confidence 7) [4F177CE5] (AR v2)
Copy OK

Track 5

Filename J:\Process\Music\Buxtehude (Bryndorf)\Disc 3\05 - Dietrich Buxtehude - Praeludium in G minor, BuxWV 163.wav

Pre-gap length 0:00:04.16

Peak level 66.6 %
Extraction speed 1.7 X
Track quality 100.0 %
Test CRC 89375E9F
Copy CRC 89375E9F
Accurately ripped (confidence 7) [A3DC5746] (AR v2)
Copy OK

Track 6

Filename J:\Process\Music\Buxtehude (Bryndorf)\Disc 3\06 - Dietrich Buxtehude - Toccata in G major, BuxWV 164.wav

Pre-gap length 0:00:04.32

Peak level 70.1 %
Extraction speed 1.6 X
Track quality 100.0 %
Test CRC D27359AD
Copy CRC D27359AD
Accurately ripped (confidence 7) [600692CB] (AR v2)
Copy OK

Track 7

Filename J:\Process\Music\Buxtehude (Bryndorf)\Disc 3\07 - Dietrich Buxtehude - Praeambulum in A minor, BuxWV 158.wav

Pre-gap length 0:00:04.30

Peak level 89.2 %
Extraction speed 1.8 X
Track quality 100.0 %
Test CRC B9667D65
Copy CRC B9667D65
Accurately ripped (confidence 7) [5B0AA82B] (AR v2)
Copy OK

Track 8

Filename J:\Process\Music\Buxtehude (Bryndorf)\Disc 3\08 - Dietrich Buxtehude - Durch Adams Fall ist ganz verderbt, BuxWV 183.wav

Pre-gap length 0:00:03.77

Peak level 35.4 %
Extraction speed 1.7 X
Track quality 99.9 %
Test CRC 275F5CB5
Copy CRC 275F5CB5
Accurately ripped (confidence 7) [C8B7C525] (AR v2)
Copy OK

Track 9

Filename J:\Process\Music\Buxtehude (Bryndorf)\Disc 3\09 - Dietrich Buxtehude - Herr Christ, der einig Gottes Sohn, BuxWV 191.wav

Pre-gap length 0:00:03.80

Peak level 48.7 %
Extraction speed 1.9 X
Track quality 100.0 %
Test CRC FAAEA465
Copy CRC FAAEA465
Accurately ripped (confidence 7) [4456209A] (AR v2)
Copy OK

Track 10

Filename J:\Process\Music\Buxtehude (Bryndorf)\Disc 3\10 - Dietrich Buxtehude - Herr Christ, der einig Gottes Sohn, BuxWV 192.wav

Pre-gap length 0:00:03.48

Peak level 50.1 %
Extraction speed 1.9 X
Track quality 100.0 %
Test CRC 14A59B2D
Copy CRC 14A59B2D
Accurately ripped (confidence 7) [D86DE69B] (AR v2)
Copy OK

Track 11

Filename J:\Process\Music\Buxtehude (Bryndorf)\Disc 3\11 - Dietrich Buxtehude - Es ist das Heil uns kommen her, BuxWV 186.wav

Pre-gap length 0:00:02.37

Peak level 59.1 %
Extraction speed 2.0 X
Track quality 100.0 %
Test CRC 460647F4
Copy CRC 460647F4
Accurately ripped (confidence 7) [4CEEF098] (AR v2)
Copy OK

Track 12

Filename J:\Process\Music\Buxtehude (Bryndorf)\Disc 3\12 - Dietrich Buxtehude - Canzonetta in G major, BuxWV 172.wav

Pre-gap length 0:00:03.57

Peak level 19.3 %
Extraction speed 1.9 X
Track quality 100.0 %
Test CRC 27C3C3CF
Copy CRC 27C3C3CF
Accurately ripped (confidence 7) [03290147] (AR v2)
Copy OK

Track 13

Filename J:\Process\Music\Buxtehude (Bryndorf)\Disc 3\13 - Dietrich Buxtehude - Canzonetta in A minor, BuxWV 225.wav

Pre-gap length 0:00:02.50

Peak level 21.0 %
Extraction speed 1.9 X
Track quality 100.0 %
Test CRC 0D3EE446
Copy CRC 0D3EE446
Accurately ripped (confidence 7) [A08F5F69] (AR v2)
Copy OK

Track 14

Filename J:\Process\Music\Buxtehude (Bryndorf)\Disc 3\14 - Dietrich Buxtehude - Canzona in G minor, BuxWV 173.wav

Pre-gap length 0:00:03.06

Peak level 37.2 %
Extraction speed 1.8 X
Track quality 100.0 %
Test CRC 7CC48371
Copy CRC 7CC48371
Accurately ripped (confidence 7) [0A5D0B8B] (AR v2)
Copy OK

Track 15

Filename J:\Process\Music\Buxtehude (Bryndorf)\Disc 3\15 - Dietrich Buxtehude - Praeludium in G minor, BuxWV 150.wav

Pre-gap length 0:00:02.24

Peak level 74.4 %
Extraction speed 2.2 X
Track quality 99.9 %
Test CRC 4B8FDD34
Copy CRC 4B8FDD34
Accurately ripped (confidence 6) [5A7290E7] (AR v2)
Copy OK

Track 16

Filename J:\Process\Music\Buxtehude (Bryndorf)\Disc 3\16 - Dietrich Buxtehude - Kommt her zu mir, spricht Gottes Sohn, BuxWV 201.wav

Pre-gap length 0:00:06.56

Peak level 43.0 %
Extraction speed 2.3 X
Track quality 100.0 %
Test CRC 7157F56A
Copy CRC 7157F56A
Accurately ripped (confidence 7) [53ACC945] (AR v2)
Copy OK

Track 17

Filename J:\Process\Music\Buxtehude (Bryndorf)\Disc 3\17 - Dietrich Buxtehude - Herr Jesu Christ, ich weiß gar wohl, BuxWV 193.wav

Pre-gap length 0:00:03.84

Peak level 43.6 %
Extraction speed 2.3 X
Track quality 100.0 %
Test CRC 51F3E5D9
Copy CRC 51F3E5D9
Accurately ripped (confidence 7) [031A9585] (AR v2)
Copy OK

Track 18

Filename J:\Process\Music\Buxtehude (Bryndorf)\Disc 3\18 - Dietrich Buxtehude - Vater unser im Himmelreich, BuxWV 219.wav

Pre-gap length 0:00:05.74

Peak level 39.4 %
Extraction speed 2.0 X
Track quality 99.9 %
Test CRC 3CE945F4
Copy CRC 3CE945F4
Accurately ripped (confidence 7) [0C9B6D94] (AR v2)
Copy OK

Track 19

Filename J:\Process\Music\Buxtehude (Bryndorf)\Disc 3\19 - Dietrich Buxtehude - Toccata in F major, BuxWV 156.wav

Pre-gap length 0:00:02.84

Peak level 89.5 %
Extraction speed 2.7 X
Track quality 100.0 %
Test CRC D1AE3972
Copy CRC D1AE3972
Accurately ripped (confidence 7) [15A07D7C] (AR v2)
Copy OK


All tracks accurately ripped

No errors occurred

End of status report

–– CUETools DB Plugin V2.1.6

[CTDB TOCID: oPqDyhPc8Oupnfgkblf.3sgiPnc-] found
Submit result: oPqDyhPc8Oupnfgkblf.3sgiPnc- has been confirmed
Track | CTDB Status
1 | (5/5) Accurately ripped
2 | (5/5) Accurately ripped
3 | (5/5) Accurately ripped
4 | (5/5) Accurately ripped
5 | (5/5) Accurately ripped
6 | (5/5) Accurately ripped
7 | (5/5) Accurately ripped
8 | (5/5) Accurately ripped
9 | (5/5) Accurately ripped
10 | (5/5) Accurately ripped
11 | (5/5) Accurately ripped
12 | (5/5) Accurately ripped
13 | (5/5) Accurately ripped
14 | (5/5) Accurately ripped
15 | (5/5) Accurately ripped
16 | (5/5) Accurately ripped
17 | (5/5) Accurately ripped
18 | (5/5) Accurately ripped
19 | (5/5) Accurately ripped


==== Log checksum 327044C99C02CF59E3B7AD5567A7884CFD6F54114BF58D332402FD883EDC86BB ====


Dietrich Buxtehude - Complete Works for Organ, Volume 3 - Bine Bryndorf (2005) {Dacapo 8.226023}


see more Dietrich Buxtehude…


===