Subcategories

Dizzy Gillespie - New Faces (1985)

Posted By: Bezz
Dizzy Gillespie - New Faces (1985)

Dizzy Gillespie - New Faces (1985)
EAC rip | FLAC+CUE+LOG | Scans | 263 Mb(Incl. Recovery)
Genre ~ Bop, Afro-Cuban Jazz, Trumpet Jazz | Label ~ GRP Records

Gillespie was teamed up with Branford Marsalis for this decent effort. His own trumpet playing had faded quite a bit by this time (he was already age 67), but he sounds enthusiastic on five of his compositions (including "Birk's Works"), "Tin Tin Deo," and Mike Longo's "Every Mornin'," trading ideas with such young turks as Marsalis, pianist Kenny Kirkland and bassist Lonnie Plaxico. ~ AllMusic
Tracklist

1. Birk's Works (06:29)
2. Lorraine (07:48)
3. Tin Tin Deo (06:30)
4. Tenor Song (04:06)
5. Ballad (07:21)
6. Fiesta Mojo (06:17)
7. Every Mornin' (04:29)

Exact Audio Copy V0.99 prebeta 5 from 4. May 2009

Отчёт EAC об извлечении, выполненном 24. сентября 2010, 12:18

Dizzy Gillespie / New Faces [VDJ-1017]

Дисковод: Optiarc DVD RW AD-7200A Adapter: 1 ID: 0

Режим чтения : Достоверность
Использование точного потока : Да
Отключение кэша аудио : Да
Использование указателей C2 : Нет

Коррекция смещения при чтении : 48
Способность читать области Lead-in и Lead-out : Нет
Заполнение пропущенных сэмплов тишиной : Да
Удаление блоков с тишиной в начале и конце : Нет
При вычислениях CRC использовались нулевые сэмплы : Да
Интерфейс : Встроенный Win32-интерфейс для Win NT/2000

Выходной формат : Пользовательский кодировщик
Выбранный битрейт : 128 kBit/s
Качество : Высокий
Добавление ID3-тэга : Нет
Утилита сжатия : C:\Program Files\Exact Audio Copy\Flac\flac.exe
Дополнительные параметры : -8 -V -T "artist=%a" -T "title=%t" -T "album=%g" -T "date=%y" -T "tracknumber=%n" -T "genre=%m" -T "comment=EAC

TOC извлечённого CD

Трек | Старт | Длительность | Начальный сектор | Конечный сектор
––––––––––––––––––––––––––––––––––-
1 | 0:00.37 | 6:29.35 | 37 | 29246
2 | 6:29.72 | 7:48.03 | 29247 | 64349
3 | 14:18.00 | 6:29.40 | 64350 | 93564
4 | 20:47.40 | 4:05.62 | 93565 | 112001
5 | 24:53.27 | 7:20.58 | 112002 | 145059
6 | 32:14.10 | 6:17.07 | 145060 | 173341
7 | 38:31.17 | 4:29.20 | 173342 | 193536

Характеристики диапазона извлечения и сообщения об ошибках

Выбранный диапазон

Имя файла Y:\Музыка\Dizzy Gillespie\1984 New Faces\Dizzy Gillespie - New Faces [VDJ-1017].wav

Пиковый уровень 100.0 %
Качество диапазона 99.9 %
CRC копии B8090EE1
Копирование… OK

Ошибок не произошло

AccurateRip: сводка

Трек 1 точность не определена (достоверность 2) [619CCC91], AccurateRip вернул [3E4F012A]
Трек 2 точность не определена (достоверность 2) [D40D2B71], AccurateRip вернул [5E64AC9C]
Трек 3 точность не определена (достоверность 2) [01422D3A], AccurateRip вернул [1E538252]
Трек 4 точность не определена (достоверность 2) [2CB01480], AccurateRip вернул [9DC4AAF9]
Трек 5 точность не определена (достоверность 2) [9E818B0B], AccurateRip вернул [16B18D4C]
Трек 6 точность не определена (достоверность 2) [59FB83AC], AccurateRip вернул [7DD97241]
Трек 7 точность не определена (достоверность 2) [E6CF1860], AccurateRip вернул [939800AF]

Ни один трек не прошёл проверки на точность
В вашей базе может быть иной вариант штамповки диска

Конец отчёта

Dizzy Gillespie - New Faces (1985)

Dizzy Gillespie - New Faces (1985)

Special thanks to ikebana and Pretender!

Welcome to my blog for more wonderful music

PLEASE DO NOT PROVIDE MIRROR LINKS!