Tags
Language
Tags

Dollar Brand - Anatomy Of A South African Village (1965/1999)

Posted By: Domestos
Dollar Brand - Anatomy Of A South African Village (1965/1999)

Dollar Brand - Anatomy Of A South African Village (1965/1999)
EAC Rip | FLAC (tracks+.cue, log) ~ 247.62 Mb | 47:53 | Cover
Post Bop, Cape Jazz | Country: South Africa | Label: Da Music; Jazz Colours - 874743-2

Abdullah Ibrahim (born Adolph Johannes Brand on 9 October 1934 and formerly known as Dollar Brand) is a South African pianist and composer. His music reflects many of the musical influences of his childhood in the multicultural port areas of Cape Town, ranging from traditional African songs to the gospel of the AME Church and ragas, to more modern jazz and other Western styles. Ibrahim is considered the leading figure in the subgenre of Cape jazz. Within jazz, his music particularly reflects the influence of Thelonious Monk and Duke Ellington. He is known especially for "Mannenberg", a jazz piece that became a notable anti-apartheid anthem.

During the apartheid era in the 1960s Ibrahim moved to New York City and, apart from a brief return to South Africa in the 1970s, remained in exile until the early '90s. Over the decades he has toured the world extensively, appearing at major venues either as a solo artist or playing with other renowned musicians, including Max Roach, Carlos Ward and Randy Weston, as well as collaborating with classical orchestras in Europe. With his wife, the jazz singer Sathima Bea Benjamin, he is father to the New York underground rapper Jean Grae, as well as to a son, Tsakwe.

Track List:
01. Light in Blue
02. Anatomy of a South African Village
03. Tintiana
04. Round About Midnight
05. Honey
06. The Dream
07. Smoke Gets in Your Eyes

Exact Audio Copy V1.3 from 2. September 2016

EAC extraction logfile from 18. March 2018, 19:35

Dollar Brand / Anatomy of a South African Village

Used drive : PLEXTOR DVDR PX-891SA Adapter: 1 ID: 0

Read mode : Secure
Utilize accurate stream : Yes
Defeat audio cache : Yes
Make use of C2 pointers : No

Read offset correction : 6
Overread into Lead-In and Lead-Out : No
Fill up missing offset samples with silence : Yes
Delete leading and trailing silent blocks : No
Null samples used in CRC calculations : Yes
Used interface : Native Win32 interface for Win NT & 2000
Gap handling : Appended to previous track

Used output format : User Defined Encoder
Selected bitrate : 1024 kBit/s
Quality : High
Add ID3 tag : No
Command line compressor : C:\Program Files (x86)\Exact Audio Copy\FLAC\FLAC.EXE
Additional command line options : -8 -V -T "ARTIST=%artist%" -T "TITLE=%title%" -T "ALBUM=%albumtitle%" -T "DATE=%year%" -T "TRACKNUMBER=%tracknr%" -T "GENRE=%genre%" -T "COMMENT=%comment%" -T "BAND=%albuminterpret%" -T "ALBUMARTIST=%albuminterpret%" -T "COMPOSER=%composer%" %haslyrics%–tag-from-file=LYRICS="%lyricsfile%"%haslyrics% -T "DISCNUMBER=%cdnumber%" -T "TOTALDISCS=%totalcds%" -T "TOTALTRACKS=%numtracks%" %hascover%–picture="%coverfile%"%hascover% %source% -o %dest%

TOC of the extracted CD

Track | Start | Length | Start sector | End sector
––––––––––––––––––––––––––––-
1 | 0:00.00 | 6:53.33 | 0 | 31007
2 | 6:53.33 | 14:56.67 | 31008 | 98274
3 | 21:50.25 | 4:25.69 | 98275 | 118218
4 | 26:16.19 | 6:27.59 | 118219 | 147302
5 | 32:44.03 | 4:37.18 | 147303 | 168095
6 | 37:21.21 | 7:50.30 | 168096 | 203375
7 | 45:11.51 | 2:41.65 | 203376 | 215515

Track 1

Filename H:\Torrents\Dollar Brand\Dollar Brand (1965-1999) [874743-2] Anatomy of a South African Village\01. Light in Blue.wav

Pre-gap length 0:00:02.00

Peak level 64.2 %
Extraction speed 6.4 X
Track quality 100.0 %
Test CRC 34F86B92
Copy CRC 34F86B92
Cannot be verified as accurate (confidence 3) [E4644FDC], AccurateRip returned [E0AC6C52] (AR v2)
Copy OK

Track 2

Filename H:\Torrents\Dollar Brand\Dollar Brand (1965-1999) [874743-2] Anatomy of a South African Village\02. Anatomy of a South African Village.wav

Pre-gap length 0:00:02.70

Peak level 95.0 %
Extraction speed 8.1 X
Track quality 100.0 %
Test CRC F5C7B408
Copy CRC F5C7B408
Cannot be verified as accurate (confidence 3) [1DD06A79], AccurateRip returned [1CCF4E3D] (AR v2)
Copy OK

Track 3

Filename H:\Torrents\Dollar Brand\Dollar Brand (1965-1999) [874743-2] Anatomy of a South African Village\03. Tintiana.wav

Pre-gap length 0:00:01.70

Peak level 89.8 %
Extraction speed 7.2 X
Track quality 99.9 %
Test CRC CBF5B44F
Copy CRC CBF5B44F
Cannot be verified as accurate (confidence 3) [5AD7D90F], AccurateRip returned [53FEB6A3] (AR v2)
Copy OK

Track 4

Filename H:\Torrents\Dollar Brand\Dollar Brand (1965-1999) [874743-2] Anatomy of a South African Village\04. Round About Midnight.wav

Pre-gap length 0:00:02.16

Peak level 90.6 %
Extraction speed 8.3 X
Track quality 99.9 %
Test CRC 1F146CDE
Copy CRC 1F146CDE
Cannot be verified as accurate (confidence 3) [C9E68118], AccurateRip returned [196429C5] (AR v2)
Copy OK

Track 5

Filename H:\Torrents\Dollar Brand\Dollar Brand (1965-1999) [874743-2] Anatomy of a South African Village\05. Honey.wav

Pre-gap length 0:00:01.64

Peak level 86.1 %
Extraction speed 8.1 X
Track quality 99.9 %
Test CRC 2844F45C
Copy CRC 2844F45C
Cannot be verified as accurate (confidence 3) [6098295B], AccurateRip returned [22F9D872] (AR v2)
Copy OK

Track 6

Filename H:\Torrents\Dollar Brand\Dollar Brand (1965-1999) [874743-2] Anatomy of a South African Village\06. The Dream.wav

Pre-gap length 0:00:02.00

Peak level 88.0 %
Extraction speed 10.5 X
Track quality 100.0 %
Test CRC 3EBE89E2
Copy CRC 3EBE89E2
Cannot be verified as accurate (confidence 3) [688ADCE4], AccurateRip returned [2E199FC7] (AR v2)
Copy OK

Track 7

Filename H:\Torrents\Dollar Brand\Dollar Brand (1965-1999) [874743-2] Anatomy of a South African Village\07. Smoke Gets in Your Eyes.wav

Pre-gap length 0:00:02.05

Peak level 69.6 %
Extraction speed 9.4 X
Track quality 100.0 %
Test CRC 67377270
Copy CRC 67377270
Cannot be verified as accurate (confidence 3) [17A31C06], AccurateRip returned [B64F3627] (AR v2)
Copy OK

No tracks could be verified as accurate
You may have a different pressing from the one(s) in the database

No errors occurred

End of status report

==== Log checksum D3190B4C3F0E1798FFF405D587C351EA8F19337771433FA16B445031A6FA265A ====

All thanks go to the Poupsicot88

More Music in My Blog
Follow My RSS Channel