Don Friedman Trio - Flashback (1963) {Riverside OJCCD-1903-2 rel 1997}

Posted By: ruskaval
Don Friedman Trio - Flashback (1963) {Riverside OJCCD-1903-2 rel 1997}

Don Friedman Trio - Flashback (1963) {Riverside OJCCD-1903-2 rel 1997}
EAC rip (secure mode) | FLAC (tracks)+CUE+LOG -> 227 Mb | MP3 @320 -> 96 Mb
Full Artwork @ 300 dpi (png) -> 17 Mb | 5% repair rar
© 1963, 1997 Riverside / Fantasy | OJCCD-1903-2
Jazz / Hard Bop / Post Bebop / Piano Trio

Pianist Don Friedman's debt to Bill Evans was obvious in the early '60s, particularly on standards, but he also had his own creative spirit to offer. This 1997 CD reissue brings out Friedman's third of four Riverside dates, teaming him with the obscure bassist Dick Kniss and drummer Dick Berk. The pianist shows that he was developing an original voice and was familiar with the avant-garde of the period on such originals as "Ohcre" and "Flashback." In contrast, he swings conventionally but with subtle creativity on "Alone Together," "News Blues" and "How Deep Is the Ocean." A fine, well-rounded set from the underrated pianist.

Personnel:
Don Friedman - piano
Dick Kniss - bass
Dick Berk - drums

tracklist:
01 - Alone Together
02 - Ballade in C-Sharp Minor
03 - Wait 'Till You See Her
04 - News Blues
05 - Ochre
06 - How Deep Is The Ocean
07 - Flashback

Exact Audio Copy V1.0 beta 2 from 29. April 2011

EAC extraction logfile from 10. January 2012, 21:02

Don Friedman Trio / Flashback

Used drive : HL-DT-STDVDRAM_GT30N Adapter: 1 ID: 0

Read mode : Secure
Utilize accurate stream : Yes
Defeat audio cache : Yes
Make use of C2 pointers : No

Read offset correction : 103
Overread into Lead-In and Lead-Out : No
Fill up missing offset samples with silence : Yes
Delete leading and trailing silent blocks : No
Null samples used in CRC calculations : Yes
Used interface : Native Win32 interface for Win NT & 2000
Gap handling : Appended to previous track

Used output format : User Defined Encoder
Selected bitrate : 640 kBit/s
Quality : High
Add ID3 tag : No
Command line compressor : C:\Program Files\Exact Audio Copyv1.0b2\Flac\flac.exe
Additional command line options : -8 -V -T "ARTIST=%artist%" -T "TITLE=%title%" -T "ALBUM=%albumtitle%" -T "DATE=%year%" -T "TRACKNUMBER=%tracknr%" -T "TOTALTRACKS=%numtracks%" -T "GENRE=%genre%" -T "ALBUMARTIST=%albumartist%" -T "ALBUM ARTIST=%albumartist%


TOC of the extracted CD

Track | Start | Length | Start sector | End sector
––––––––––––––––––––––––––––-
1 | 0:00.00 | 4:41.07 | 0 | 21081
2 | 4:41.07 | 6:30.13 | 21082 | 50344
3 | 11:11.20 | 4:22.17 | 50345 | 70011
4 | 15:33.37 | 5:04.63 | 70012 | 92874
5 | 20:38.25 | 7:49.12 | 92875 | 128061
6 | 28:27.37 | 5:53.18 | 128062 | 154554
7 | 34:20.55 | 6:57.55 | 154555 | 185884


Track 1

Filename I:\my upload\Don Friedman Trio - Flashback (1997) [FLAC] {Riverside, OJCCD-1903-2, rec 1963}\01 - Alone Together.wav

Pre-gap length 0:00:02.00

Peak level 98.7 %
Extraction speed 1.3 X
Track quality 100.0 %
Test CRC 6C77D07E
Copy CRC 6C77D07E
Accurately ripped (confidence 1) [A51DC3D4] (AR v1)
Copy OK

Track 2

Filename I:\my upload\Don Friedman Trio - Flashback (1997) [FLAC] {Riverside, OJCCD-1903-2, rec 1963}\02 - Ballade in C-Sharp Minor.wav

Pre-gap length 0:00:02.27

Peak level 93.7 %
Extraction speed 1.5 X
Track quality 100.0 %
Test CRC B406B430
Copy CRC B406B430
Accurately ripped (confidence 1) [6E375ADD] (AR v1)
Copy OK

Track 3

Filename I:\my upload\Don Friedman Trio - Flashback (1997) [FLAC] {Riverside, OJCCD-1903-2, rec 1963}\03 - Wait 'Till You See Her.wav

Pre-gap length 0:00:02.43

Peak level 88.0 %
Extraction speed 1.6 X
Track quality 100.0 %
Test CRC A0D8ED9C
Copy CRC A0D8ED9C
Accurately ripped (confidence 1) [E36CDF81] (AR v1)
Copy OK

Track 4

Filename I:\my upload\Don Friedman Trio - Flashback (1997) [FLAC] {Riverside, OJCCD-1903-2, rec 1963}\04 - News Blues.wav

Pre-gap length 0:00:03.25

Peak level 96.7 %
Extraction speed 1.7 X
Track quality 100.0 %
Test CRC C0B42EBE
Copy CRC C0B42EBE
Accurately ripped (confidence 1) [8BADD07E] (AR v1)
Copy OK

Track 5

Filename I:\my upload\Don Friedman Trio - Flashback (1997) [FLAC] {Riverside, OJCCD-1903-2, rec 1963}\05 - Ochre.wav

Pre-gap length 0:00:03.10

Peak level 99.9 %
Extraction speed 2.0 X
Track quality 100.0 %
Test CRC 9940F101
Copy CRC 9940F101
Accurately ripped (confidence 1) [2EEE2881] (AR v1)
Copy OK

Track 6

Filename I:\my upload\Don Friedman Trio - Flashback (1997) [FLAC] {Riverside, OJCCD-1903-2, rec 1963}\06 - How Deep Is The Ocean.wav

Pre-gap length 0:00:01.45

Peak level 87.1 %
Extraction speed 1.9 X
Track quality 99.9 %
Test CRC B6ECE4FE
Copy CRC B6ECE4FE
Accurately ripped (confidence 1) [3D9C6EBF] (AR v1)
Copy OK

Track 7

Filename I:\my upload\Don Friedman Trio - Flashback (1997) [FLAC] {Riverside, OJCCD-1903-2, rec 1963}\07 - Flashback.wav

Pre-gap length 0:00:03.45

Peak level 99.9 %
Extraction speed 2.3 X
Track quality 100.0 %
Test CRC 2819AED7
Copy CRC 2819AED7
Accurately ripped (confidence 1) [073205A5] (AR v1)
Copy OK


All tracks accurately ripped

No errors occurred

End of status report

==== Log checksum 200EDD08F41EFF5B5628FCC9D688CBB77B408A4988DBB13EC74D3CC821FE6C46 ====


Don Friedman Trio - Flashback (1963) {Riverside OJCCD-1903-2 rel 1997}

Don Friedman Trio - Flashback (1963) {Riverside OJCCD-1903-2 rel 1997}



===