Tags
Language
Tags

Duke Ellington - The (almost) complete Jazz Violin Session - 1963 (2016) {La Maison du Duke MDD 008}

Posted By: ruskaval
Duke Ellington - The (almost) complete Jazz Violin Session - 1963 (2016) {La Maison du Duke MDD 008}

Duke Ellington - The (almost) complete Jazz Violin Session - 1963 (2016) {La Maison du Duke MDD 008}
EAC rip (secure mode) | FLAC (tracks)+CUE+LOG -> 419 Mb | MP3 @320 -> 186 Mb
Full Artwork @ 600 dpi (jpg) -> 23 Mb | 5% repair rar
© 1963, 2016 La Maison du Duke | MDD 008
Jazz / Mainstream Jazz / Progressive Jazz / Piano / Violin

La Maison du Duke is proud to present a collection of unpublished recordings of Duke Ellington, which come from an important stock of Ellington archives (Clavié collection), acquired by the association, which only a few collectors had access to today . The CDs are reserved for members of the Maison du Duke association and are not intended to be marketed.
La Maison du Duke est fière de vous présenter une collection d’enregistrements inédits de Duke Ellington, qui roviennent d’un important stock d’archives ellingtoniennes (collection Clavié), acquis par l’association, auquel seuls quelques collectionneurs avaient accès à ce jour. Tirés en très faible quantité, les CDs sont réservés aux membres de l’association la Maison du Duke et n’ont pas vocation à être commercialisés.
Paris, 22 février 1963 : Duke Ellington, alors directeur artistique du label Reprise, a l’idée originale d’organiser une séance d’enregistrement autour des violonistes Stéphane Grappelli, Ray Nance et Svend Asmussen accompagnés par la rythmique ducale et suivant les plages par quelques soufflants ellingtoniens. La MDD a le plaisir d’offrir à ses adhérents un huitième CD présentant la quasi-totalité de cette étonnante séance, avec plus de 32 minutes de matériau inédit !

La Maison du Duke INFO

Personnel:
Stéphane Grappelli (vln except 14 to 18)
Ray Nance (vln except 12 to 15)
Svend Asmussen (viola except 12-13, 16 to 18)
Duke Ellington (p except 7)
Billy Strayhorn (p on 7-8-9)
Ernie Shepard (b, vcl)
Sam Woodyard (d)
Add Buster Cooper (tb)
Russell Procope (as)
Paul Gonsalves (ts) on 3 to 11

Barclay Studios, Paris, France, February 22, 1963

tracklist:
1 Take The “A” Train (Billy Strayhorn) unissued material
2 Take The “A” Train master take
3 Tricky’s Licks (Duke Ellington) unissued material
4 Tricky’s Licks master take
5 Blues In C (Duke Ellington) false start and master take
6 Limbo Jazz (Duke Ellington) master take
7 Pretty Little One (Billy Strayhorn) master take
8 String Along With Strings (Duke Ellington) unissued material
9 String Along With Strings master take
10 The Feeling Of Jazz (Duke Ellington) unissued material
11 The Feeling Of Jazz master take
12 In A Sentimental Mood (Duke Ellington) unissued material
13 In A Sentimental Mood master take
14 Don’t Get Around Much Anymore (Duke Ellington) unissued material
15 Don’t Get Around Much Anymore master take
16 Day Dream (Billy Strayhorn) unissued material
17 Day Dream master take
18 Day Dream unissued material
19 Cotton Tail (Duke Ellington) unissued material
20 Cotton Tail master take

Exact Audio Copy V1.3 from 2. September 2016

EAC extraction logfile from 27. June 2017, 14:40

Duke Ellington / The (almost) complete Jazz Violin Session

Used drive : TSSTcorpCDDVDW SE-208DB Adapter: 1 ID: 1

Read mode : Secure
Utilize accurate stream : Yes
Defeat audio cache : Yes
Make use of C2 pointers : No

Read offset correction : 6
Overread into Lead-In and Lead-Out : No
Fill up missing offset samples with silence : Yes
Delete leading and trailing silent blocks : No
Null samples used in CRC calculations : Yes
Used interface : Native Win32 interface for Win NT & 2000
Gap handling : Appended to previous track

Used output format : User Defined Encoder
Selected bitrate : 1024 kBit/s
Quality : High
Add ID3 tag : No
Command line compressor : C:\Program Files (x86)\FLAC Frontend\tools\flac.exe
Additional command line options : -8 -V -T "ARTIST=%artist%" -T "TITLE=%title%" -T "ALBUM=%albumtitle%" -T "DATE=%year%" -T "TRACKNUMBER=%tracknr%" -T "TOTALTRACKS=%numtracks%" -T "GENRE=%genre%" -T "ALBUMARTIST=%albumartist%" -T "ALBUM ARTIST=%albumartist%" -T "COMMENT=EAC Secure Mode, Test & Copy, AccurateRip, FLAC -8" %source%


TOC of the extracted CD

Track | Start | Length | Start sector | End sector
––––––––––––––––––––––––––––-
1 | 0:00.00 | 2:50.27 | 0 | 12776
2 | 2:50.27 | 4:22.58 | 12777 | 32484
3 | 7:13.10 | 6:29.32 | 32485 | 61691
4 | 13:42.42 | 3:43.09 | 61692 | 78425
5 | 17:25.51 | 4:06.05 | 78426 | 96880
6 | 21:31.56 | 5:27.13 | 96881 | 121418
7 | 26:58.69 | 4:24.25 | 121419 | 141243
8 | 31:23.19 | 1:08.39 | 141244 | 146382
9 | 32:31.58 | 6:34.05 | 146383 | 175937
10 | 39:05.63 | 4:38.00 | 175938 | 196787
11 | 43:43.63 | 3:24.69 | 196788 | 212156
12 | 47:08.57 | 5:57.09 | 212157 | 238940
13 | 53:05.66 | 3:56.43 | 238941 | 256683
14 | 57:02.34 | 2:06.38 | 256684 | 266171
15 | 59:08.72 | 3:57.65 | 266172 | 284011
16 | 63:06.62 | 0:53.14 | 284012 | 288000
17 | 64:00.01 | 3:13.12 | 288001 | 302487
18 | 67:13.13 | 3:22.29 | 302488 | 317666
19 | 70:35.42 | 4:27.41 | 317667 | 337732
20 | 75:03.08 | 4:38.06 | 337733 | 358588


Track 1

Filename D:\_EAC\Duke Ellington - The (almost) complete Jazz Violin Session - 1963 (2016) [FLAC] {La Maison du Duke MDD 008}\01 - Take The ''A'' Train.wav

Pre-gap length 0:00:02.00

Peak level 40.8 %
Extraction speed 1.0 X
Track quality 100.0 %
Test CRC A9FFCC55
Copy CRC A9FFCC55
Track not present in AccurateRip database
Copy OK

Track 2

Filename D:\_EAC\Duke Ellington - The (almost) complete Jazz Violin Session - 1963 (2016) [FLAC] {La Maison du Duke MDD 008}\02 - Take The ''A'' Train.wav

Peak level 89.4 %
Extraction speed 1.2 X
Track quality 100.0 %
Test CRC 06737CF8
Copy CRC 06737CF8
Track not present in AccurateRip database
Copy OK

Track 3

Filename D:\_EAC\Duke Ellington - The (almost) complete Jazz Violin Session - 1963 (2016) [FLAC] {La Maison du Duke MDD 008}\03 - Tricky's Licks.wav

Peak level 66.0 %
Extraction speed 1.2 X
Track quality 99.9 %
Test CRC 548BE882
Copy CRC 548BE882
Track not present in AccurateRip database
Copy OK

Track 4

Filename D:\_EAC\Duke Ellington - The (almost) complete Jazz Violin Session - 1963 (2016) [FLAC] {La Maison du Duke MDD 008}\04 - Tricky's Licks.wav

Peak level 53.7 %
Extraction speed 1.1 X
Track quality 99.9 %
Test CRC EC3BE3FF
Copy CRC EC3BE3FF
Track not present in AccurateRip database
Copy OK

Track 5

Filename D:\_EAC\Duke Ellington - The (almost) complete Jazz Violin Session - 1963 (2016) [FLAC] {La Maison du Duke MDD 008}\05 - Blues In C.wav

Peak level 77.9 %
Extraction speed 1.4 X
Track quality 100.0 %
Test CRC 39B4B095
Copy CRC 39B4B095
Track not present in AccurateRip database
Copy OK

Track 6

Filename D:\_EAC\Duke Ellington - The (almost) complete Jazz Violin Session - 1963 (2016) [FLAC] {La Maison du Duke MDD 008}\06 - Limbo Jazz.wav

Peak level 84.7 %
Extraction speed 1.5 X
Track quality 100.0 %
Test CRC ABB916AF
Copy CRC ABB916AF
Track not present in AccurateRip database
Copy OK

Track 7

Filename D:\_EAC\Duke Ellington - The (almost) complete Jazz Violin Session - 1963 (2016) [FLAC] {La Maison du Duke MDD 008}\07 - Pretty Little One.wav

Peak level 62.1 %
Extraction speed 1.6 X
Track quality 100.0 %
Test CRC 6260660C
Copy CRC 6260660C
Track not present in AccurateRip database
Copy OK

Track 8

Filename D:\_EAC\Duke Ellington - The (almost) complete Jazz Violin Session - 1963 (2016) [FLAC] {La Maison du Duke MDD 008}\08 - String Along With Strings.wav

Peak level 54.8 %
Extraction speed 1.1 X
Track quality 100.0 %
Test CRC 6751A875
Copy CRC 6751A875
Track not present in AccurateRip database
Copy OK

Track 9

Filename D:\_EAC\Duke Ellington - The (almost) complete Jazz Violin Session - 1963 (2016) [FLAC] {La Maison du Duke MDD 008}\09 - String Along With Strings.wav

Peak level 65.6 %
Extraction speed 1.5 X
Track quality 99.9 %
Test CRC 4A003CD8
Copy CRC 4A003CD8
Track not present in AccurateRip database
Copy OK

Track 10

Filename D:\_EAC\Duke Ellington - The (almost) complete Jazz Violin Session - 1963 (2016) [FLAC] {La Maison du Duke MDD 008}\10 - The Feeling Of Jazz.wav

Peak level 69.6 %
Extraction speed 1.7 X
Track quality 100.0 %
Test CRC BC4A2642
Copy CRC BC4A2642
Track not present in AccurateRip database
Copy OK

Track 11

Filename D:\_EAC\Duke Ellington - The (almost) complete Jazz Violin Session - 1963 (2016) [FLAC] {La Maison du Duke MDD 008}\11 - The Feeling Of Jazz.wav

Peak level 54.0 %
Extraction speed 1.7 X
Track quality 100.0 %
Test CRC 3BDBCD53
Copy CRC 3BDBCD53
Track not present in AccurateRip database
Copy OK

Track 12

Filename D:\_EAC\Duke Ellington - The (almost) complete Jazz Violin Session - 1963 (2016) [FLAC] {La Maison du Duke MDD 008}\12 - In A Sentimental Mood.wav

Peak level 56.9 %
Extraction speed 1.9 X
Track quality 100.0 %
Test CRC 922F6717
Copy CRC 922F6717
Track not present in AccurateRip database
Copy OK

Track 13

Filename D:\_EAC\Duke Ellington - The (almost) complete Jazz Violin Session - 1963 (2016) [FLAC] {La Maison du Duke MDD 008}\13 - In A Sentimental Mood.wav

Peak level 53.2 %
Extraction speed 1.8 X
Track quality 100.0 %
Test CRC 7FE00F12
Copy CRC 7FE00F12
Track not present in AccurateRip database
Copy OK

Track 14

Filename D:\_EAC\Duke Ellington - The (almost) complete Jazz Violin Session - 1963 (2016) [FLAC] {La Maison du Duke MDD 008}\14 - Don't Get Around Much Anymore.wav

Peak level 48.2 %
Extraction speed 1.3 X
Track quality 99.9 %
Test CRC 523CDEDE
Copy CRC 523CDEDE
Track not present in AccurateRip database
Copy OK

Track 15

Filename D:\_EAC\Duke Ellington - The (almost) complete Jazz Violin Session - 1963 (2016) [FLAC] {La Maison du Duke MDD 008}\15 - Don't Get Around Much Anymore.wav

Peak level 74.5 %
Extraction speed 1.9 X
Track quality 100.0 %
Test CRC D4270228
Copy CRC D4270228
Track not present in AccurateRip database
Copy OK

Track 16

Filename D:\_EAC\Duke Ellington - The (almost) complete Jazz Violin Session - 1963 (2016) [FLAC] {La Maison du Duke MDD 008}\16 - Day Dream.wav

Peak level 47.7 %
Extraction speed 1.2 X
Track quality 100.0 %
Test CRC 899BAEFC
Copy CRC 899BAEFC
Track not present in AccurateRip database
Copy OK

Track 17

Filename D:\_EAC\Duke Ellington - The (almost) complete Jazz Violin Session - 1963 (2016) [FLAC] {La Maison du Duke MDD 008}\17 - Day Dream.wav

Peak level 49.3 %
Extraction speed 1.8 X
Track quality 100.0 %
Test CRC 581866C9
Copy CRC 581866C9
Track not present in AccurateRip database
Copy OK

Track 18

Filename D:\_EAC\Duke Ellington - The (almost) complete Jazz Violin Session - 1963 (2016) [FLAC] {La Maison du Duke MDD 008}\18 - Day Dream.wav

Peak level 70.8 %
Extraction speed 1.9 X
Track quality 100.0 %
Test CRC 170A1B89
Copy CRC 170A1B89
Track not present in AccurateRip database
Copy OK

Track 19

Filename D:\_EAC\Duke Ellington - The (almost) complete Jazz Violin Session - 1963 (2016) [FLAC] {La Maison du Duke MDD 008}\19 - Cotton Tail.wav

Peak level 74.4 %
Extraction speed 1.7 X
Track quality 99.9 %
Test CRC 2715C8E2
Copy CRC 2715C8E2
Track not present in AccurateRip database
Copy OK

Track 20

Filename D:\_EAC\Duke Ellington - The (almost) complete Jazz Violin Session - 1963 (2016) [FLAC] {La Maison du Duke MDD 008}\20 - Cotton Tail.wav

Peak level 97.4 %
Extraction speed 2.1 X
Track quality 100.0 %
Test CRC B0D70444
Copy CRC B0D70444
Track not present in AccurateRip database
Copy OK


None of the tracks are present in the AccurateRip database

No errors occurred

End of status report

–– CUETools DB Plugin V2.1.6

[CTDB TOCID: y7S6kQ1rWcJvkDnqn4RuVYl..Eo-] disk not present in database
Submit result: y7S6kQ1rWcJvkDnqn4RuVYl..Eo- has been uploaded


==== Log checksum 78DF100A5BE7F9495ACE14F5BF7064CBB5C5E79FC00CEA910D0B8DC02A3DEC01 ====


Duke Ellington - The (almost) complete Jazz Violin Session - 1963 (2016) {La Maison du Duke MDD 008}

Duke Ellington - The (almost) complete Jazz Violin Session - 1963 (2016) {La Maison du Duke MDD 008}


see also:
Duke Ellington - The 1962 MOMA...0) {La Maison du Duke MDD 001}
Duke Ellington - Stockholm, Ju...2) {La Maison du Duke MDD 002}
Duke Ellington - Paris, March 1964 (2013) {La Maison du Duke MDD 003}
Duke Ellington - The Girls and...4) {La Maison du Duke MDD 004}
Duke Ellington - Welcome To Th...4) {La Maison du Duke MDD 005}

Duke Ellington - Rare Strayhor...5) {La Maison du Duke MDD 006}
Duke Ellington - Elvin chez Du...5) {La Maison du Duke MDD 007}


NEXT -> DUKE ELLINGTON « The Great 1963 Paris Concert – Unissued Material » {La Maison du Duke MDD 009}


===