Subcategories

The Duke Pearson Nonet - Honeybuns (1965) {2012 Japan Jazz Best Collection 1000 Series 24bit WPCR-27121}

Posted By: ruskaval
The Duke Pearson Nonet - Honeybuns (1965) {2012 Japan Jazz Best Collection 1000 Series 24bit WPCR-27121}

The Duke Pearson Nonet - Honeybuns (1965) {2012 Japan Jazz Best Collection 1000 Series 24bit WPCR-27121}
EAC rip (secure mode) | FLAC (tracks)+CUE+LOG -> 191 Mb | MP3 @320 -> 72 Mb
Full Artwork @ 300 dpi (jpg) -> 18 Mb | 5% repair rar | 24bit remaster
© 1965, 2012 Warner Japan / Atlantic / Rhino | WPCR-27121 | Jazz Best Collection 1000 Series
Jazz / Hard Bop / Post Bop / Piano

Features 24 bit digital remastering. Comes with a description. Other than "Our Love" (a familiar classical theme adapted to American pop music by Larry Clinton), all six selections are originals by the pianist. Utilizing a nonet that includes trumpeter Johnny Coles (who does his best to be soulful on "Honeybuns"), trombonist Garnett Brown, flutist Les Spann, altoist James Spaulding, tenor saxophonist George Coleman, baritonist Pepper Adams, bassist Bob Cranshaw, and drummer Mickey Roker, Pearson performs music in a style that would have fit in quite well on Blue Note. Most memorable among his originals is "Is That So." This is not an essential date, but it is nice to have this rarity back in print again.
The Duke Pearson Nonet - Honeybuns (1965) {2012 Japan Jazz Best Collection 1000 Series 24bit WPCR-27121}


Personnel:
George Coleman - tenor sax
Pepper Adams - baritone sax & clarinet
James Spaulding - alto sax
Garnett Brown - trombone
Johnny Coles - trumpet
Les Spann - flute
Duke Pearson - piano
Bob Cranshaw - bass
Mickey Roker - drums

Recorded: May 25 & 26, 1965

tracklist:
01. Honeybuns
02. New Girl
03. You Know I Care
04. Is That So
05. Our Love
06. Heavy Legs

Exact Audio Copy V1.0 beta 3 from 29. August 2011

EAC extraction logfile from 10. September 2014, 15:11

Duke Pearson Nonet / Honeybuns

Used drive : ATAPI DVD A DH16ABSH Adapter: 2 ID: 1

Read mode : Secure
Utilize accurate stream : Yes
Defeat audio cache : Yes
Make use of C2 pointers : No

Read offset correction : 6
Overread into Lead-In and Lead-Out : No
Fill up missing offset samples with silence : Yes
Delete leading and trailing silent blocks : No
Null samples used in CRC calculations : Yes
Used interface : Native Win32 interface for Win NT & 2000
Gap handling : Appended to previous track

Used output format : User Defined Encoder
Selected bitrate : 128 kBit/s
Quality : High
Add ID3 tag : No
Command line compressor : C:\Program Files (x86)\Exact Audio Copy\FLAC\FLAC.EXE
Additional command line options : -8 -V -T "ARTIST=%artist%" -T "TITLE=%title%" -T "ALBUM=%albumtitle%" -T "DATE=%year%" -T "TRACKNUMBER=%tracknr%" -T "TOTALTRACKS=%numtracks%" -T "GENRE=%genre%" -T "ALBUMARTIST=%albumartist%" -T "ALBUM ARTIST=%albumartist%" -T "COMMENT=EAC Secure Mode, Test & Copy, AccurateRip, FLAC -8" %source%


TOC of the extracted CD

Track | Start | Length | Start sector | End sector
––––––––––––––––––––––––––––-
1 | 0:00.00 | 7:10.25 | 0 | 32274
2 | 7:10.25 | 5:17.42 | 32275 | 56091
3 | 12:27.67 | 4:18.72 | 56092 | 75513
4 | 16:46.64 | 4:17.36 | 75514 | 94824
5 | 21:04.25 | 4:09.67 | 94825 | 113566
6 | 25:14.17 | 5:58.71 | 113567 | 140487


Track 1

Filename C:\Users\owner\Desktop\Duke Pearson Nonet - Honeybuns (1965) [FLAC] {Atlantic WPCR-27121}\01 - Honeybuns.wav

Pre-gap length 0:00:02.00

Peak level 100.0 %
Extraction speed 3.6 X
Track quality 100.0 %
Test CRC 35FA3F96
Copy CRC 35FA3F96
Accurately ripped (confidence 1) [926B6DD1] (AR v1)
Copy OK

Track 2

Filename C:\Users\owner\Desktop\Duke Pearson Nonet - Honeybuns (1965) [FLAC] {Atlantic WPCR-27121}\02 - New Girl.wav

Pre-gap length 0:00:01.71

Peak level 100.0 %
Extraction speed 4.1 X
Track quality 100.0 %
Test CRC F64B9329
Copy CRC F64B9329
Accurately ripped (confidence 1) [0DC77556] (AR v1)
Copy OK

Track 3

Filename C:\Users\owner\Desktop\Duke Pearson Nonet - Honeybuns (1965) [FLAC] {Atlantic WPCR-27121}\03 - You Know I Care.wav

Pre-gap length 0:00:01.20

Peak level 92.4 %
Extraction speed 3.5 X
Track quality 99.9 %
Test CRC 53CD87BD
Copy CRC 53CD87BD
Accurately ripped (confidence 1) [0F28614F] (AR v1)
Copy OK

Track 4

Filename C:\Users\owner\Desktop\Duke Pearson Nonet - Honeybuns (1965) [FLAC] {Atlantic WPCR-27121}\04 - Is That So.wav

Pre-gap length 0:00:07.43

Peak level 100.0 %
Extraction speed 4.5 X
Track quality 100.0 %
Test CRC 35B4A5F3
Copy CRC 35B4A5F3
Accurately ripped (confidence 1) [6FE4B362] (AR v1)
Copy OK

Track 5

Filename C:\Users\owner\Desktop\Duke Pearson Nonet - Honeybuns (1965) [FLAC] {Atlantic WPCR-27121}\05 - Our Love.wav

Pre-gap length 0:00:00.31

Peak level 100.0 %
Extraction speed 5.0 X
Track quality 100.0 %
Test CRC 3EA2D18D
Copy CRC 3EA2D18D
Accurately ripped (confidence 1) [683FB6BE] (AR v1)
Copy OK

Track 6

Filename C:\Users\owner\Desktop\Duke Pearson Nonet - Honeybuns (1965) [FLAC] {Atlantic WPCR-27121}\06 - Heavy Legs.wav

Pre-gap length 0:00:02.53

Peak level 100.0 %
Extraction speed 5.4 X
Track quality 100.0 %
Test CRC FDFAD8D5
Copy CRC FDFAD8D5
Accurately ripped (confidence 1) [C2AF308D] (AR v1)
Copy OK


All tracks accurately ripped

No errors occurred

End of status report

==== Log checksum 9B09B80A6A6B013A3019A721C256731A65C5F504A030D4E011D82B4DAA65C2FA ====


The Duke Pearson Nonet - Honeybuns (1965) {2012 Japan Jazz Best Collection 1000 Series 24bit WPCR-27121}

The Duke Pearson Nonet - Honeybuns (1965) {2012 Japan Jazz Best Collection 1000 Series 24bit WPCR-27121}


see more Japan Jazz Best Collection 1000 Series…


===