Subcategories
Tags
Language
Tags

Dusty Springfield - Dusty in Memphis (1968/1990) (Repost)

Posted By: Domestos
Dusty Springfield - Dusty in Memphis (1968/1990) (Repost)

Dusty Springfield - Dusty in Memphis (1968/1990)
EAC Rip | FLAC (tracks+.cue, log) ~ 191.99 Mb | 32:54 | Scans included
Pop, Soul | Country: England | Label: Phonogram, Philips - 846 252-2

Sometimes memories distort or inflate the quality of recordings deemed legendary, but in the case of Dusty in Memphis, the years have only strengthened its reputation. The idea of taking England's reigning female soul queen to the home of the music she had mastered was an inspired one. The Jerry Wexler/Tom Dowd/Arif Mardin production and engineering team picked mostly perfect songs, and those that weren't so great were salvaged by Springfield's marvelous delivery and technique. This set has definitive numbers in "So Much Love," "Son of a Preacher Man," "Breakfast in Bed," "Just One Smile," "I Don't Want to Hear About It Anymore," and "Just a Little Lovin'" and three bonus tracks: an unreleased version of "What Do You Do When Love Dies," "Willie & Laura Mae Jones" and "That Old Sweet Roll (Hi-De-Ho)." It's truly a disc deserving of its classic status. ~ AllMusic Review by Richie Unterberger



Track List:
01 Just A Little Lovin' - 2:16
02 So Much Love - 3:29
03 Son Of A Preacher Man - 2:26
04 I Don't Want To Hear It Anymore - 3:06
05 Don't Forget About Me - 2:48
06 Breakfast In Bed - 2:53
07 Just One Smile - 2:40
08 The Windmills Of Your Mind - 3:49
09 In The Land Of Make Believe - 2:29
10 No Easy Way Down - 3:08
11 I Can't Make It Alone - 3:49

Dusty Springfield – vocals
The Sweet Inspirations – backing vocals
Reggie Young – guitar, sitar
Tommy Cogbill – bass guitar, guitar
Bobby Emmons – organ, piano, electric piano, congas
Bobby Wood – piano
Gene Chrisman – drums
Mike Leach – congas
Ed Kollis – harmonica

Dusty Springfield - Dusty in Memphis (1968/1990) (Repost)

Exact Audio Copy V1.3 from 2. September 2016

Отчёт EAC об извлечении, выполненном 20. июня 2018, 22:08

Dusty Springfield / Dusty in Memphis

Дисковод: HL-DT-STDVDRAM GUA0N Adapter: 1 ID: 0

Режим чтения : Достоверность
Использование точного потока : Да
Отключение кэша аудио : Да
Использование указателей C2 : Нет

Коррекция смещения при чтении : 6
Способность читать области Lead-in и Lead-out : Нет
Заполнение пропущенных сэмплов тишиной : Да
Удаление блоков с тишиной в начале и конце : Нет
При вычислениях CRC использовались нулевые сэмплы : Да
Интерфейс : Встроенный Win32-интерфейс для Win NT/2000
Обработка зазоров : Добавлено к предыдущему треку

Выходной формат : Пользовательский кодировщик
Выбранный битрейт : 128 kBit/s
Качество : Высокий
Добавление ID3-тега : Нет
Утилита сжатия : C:\Program Files (x86)\Exact Audio Copy\Flac\flac.exe
Дополнительные параметры : -V -8 -T "Date=%year%" -T "Genre=%genre%" %source%


TOC извлечённого CD

Трек | Старт | Длительность | Начальный сектор | Конечный сектор
––––––––––––––––––––––––––––––––––-
1 | 0:00.33 | 2:16.12 | 33 | 10244
2 | 2:16.45 | 3:28.63 | 10245 | 25907
3 | 5:45.33 | 2:26.00 | 25908 | 36857
4 | 8:11.33 | 3:06.00 | 36858 | 50807
5 | 11:17.33 | 2:48.25 | 50808 | 63432
6 | 14:05.58 | 2:52.62 | 63433 | 76394
7 | 16:58.45 | 2:39.63 | 76395 | 88382
8 | 19:38.33 | 3:49.12 | 88383 | 105569
9 | 23:27.45 | 2:28.63 | 105570 | 116732
10 | 25:56.33 | 3:08.37 | 116733 | 130869
11 | 29:04.70 | 3:49.13 | 130870 | 148057


Трек 1

Имя файла C:\01 Just a Little Lovin’.wav

Длина предзазора 0:00:02.33

Пиковый уровень 79.3 %
Скорость извлечения 1.0 X
Качество трека 100.0 %
CRC теста E2E49B8D
CRC копии E2E49B8D
Точное извлечение (достоверность 5) [CAB2F310] (AR v2)
Копирование… OK

Трек 2

Имя файла C:\02 So Much Love.wav

Длина предзазора 0:00:01.62

Пиковый уровень 89.3 %
Скорость извлечения 1.0 X
Качество трека 99.9 %
CRC теста D78557F4
CRC копии D78557F4
Точное извлечение (достоверность 5) [3FC63E87] (AR v2)
Копирование… OK

Трек 3

Имя файла C:\03 Son of a Preacher Man.wav

Длина предзазора 0:00:02.00

Пиковый уровень 87.7 %
Скорость извлечения 1.2 X
Качество трека 100.0 %
CRC теста 7434D19F
CRC копии 7434D19F
Точное извлечение (достоверность 5) [9B3E8721] (AR v2)
Копирование… OK

Трек 4

Имя файла C:\04 I Don’t Want to Hear It Anymore.wav

Длина предзазора 0:00:01.50

Пиковый уровень 83.6 %
Скорость извлечения 1.4 X
Качество трека 100.0 %
CRC теста C0895C9A
CRC копии C0895C9A
Точное извлечение (достоверность 5) [B00C0B58] (AR v2)
Копирование… OK

Трек 5

Имя файла C:\05 Don’t Forget About Me.wav

Длина предзазора 0:00:01.49

Пиковый уровень 97.7 %
Скорость извлечения 1.2 X
Качество трека 99.9 %
CRC теста 03F99619
CRC копии 03F99619
Точное извлечение (достоверность 5) [95586660] (AR v2)
Копирование… OK

Трек 6

Имя файла C:\06 Breakfast in Bed.wav

Длина предзазора 0:00:01.74

Пиковый уровень 95.4 %
Скорость извлечения 1.5 X
Качество трека 100.0 %
CRC теста 2FB88A1B
CRC копии 2FB88A1B
Точное извлечение (достоверность 5) [3E701EDB] (AR v2)
Копирование… OK

Трек 7

Имя файла C:\07 Just One Smile.wav

Длина предзазора 0:00:01.62

Пиковый уровень 95.5 %
Скорость извлечения 1.5 X
Качество трека 100.0 %
CRC теста A7BDC979
CRC копии A7BDC979
Точное извлечение (достоверность 5) [F1D5BF55] (AR v2)
Копирование… OK

Трек 8

Имя файла C:\08 The Windmills of Your Mind.wav

Длина предзазора 0:00:02.25

Пиковый уровень 95.5 %
Скорость извлечения 1.7 X
Качество трека 100.0 %
CRC теста 601F1FC8
CRC копии 601F1FC8
Точное извлечение (достоверность 5) [3B36FCAA] (AR v2)
Копирование… OK

Трек 9

Имя файла C:\09 In the Land of Make Believe.wav

Длина предзазора 0:00:01.50

Пиковый уровень 75.8 %
Скорость извлечения 1.6 X
Качество трека 100.0 %
CRC теста B5B8C1C9
CRC копии B5B8C1C9
Точное извлечение (достоверность 5) [A9AFFA9A] (AR v2)
Копирование… OK

Трек 10

Имя файла C:\10 No Easy Way Down.wav

Длина предзазора 0:00:01.50

Пиковый уровень 87.3 %
Скорость извлечения 1.7 X
Качество трека 100.0 %
CRC теста 10809661
CRC копии 10809661
Точное извлечение (достоверность 5) [5AA884EB] (AR v2)
Копирование… OK

Трек 11

Имя файла C:\11 I Can’t Make It Alone.wav

Длина предзазора 0:00:01.62

Пиковый уровень 93.8 %
Скорость извлечения 1.9 X
Качество трека 100.0 %
CRC теста DBB1C1DC
CRC копии DBB1C1DC
Точное извлечение (достоверность 5) [2BE7FDAA] (AR v2)
Копирование… OK


Все треки извлечены точно

Ошибок не произошло

Конец отчёта

==== Контрольная сумма отчёта F8CE6131C12D8D522BE09BA2B0B51A6F87AAF1631E8E1EBAAE06833523F4444C ====

All thanks go to the Dionysius.

More Music in My Blog
Follow My RSS Channel