Subcategories

Eddie "Lockjaw" Davis - Goin' To The Meetin' (1960-62) {Prestige PRCD-24259-2 rel 2001}

Posted By: ruskaval
Eddie "Lockjaw" Davis - Goin' To The Meetin' (1960-62) {Prestige PRCD-24259-2 rel 2001}

Eddie "Lockjaw" Davis - Goin' To The Meetin' (1960-62) {Prestige PRCD-24259-2 rel 2001}
EAC rip (secure mode) | FLAC (tracks)+CUE+LOG -> 505 Mb | MP3 @320 -> 172 Mb
Full Artwork @ 300 dpi (jpg) -> 12 Mb | 5% repair rar
© 1960-62, 2001 Moodsville / Prestige / Fantasy | PRCD-24259-2
Jazz / Hard Bop / Soul Jazz / Saxophone / Organ Hammond B-3

This Fantasy 2001 two-fer reissue features saxophonist Eddie "Lockjaw" Davis in session with a quintet that includes the Shirley Scott trio (Scott, organ; George Duvivier, bass; Arthur Edgehill, drums) and conga player Ray Barretto. It was released as Eddie Lockjaw Davis Meets Shirley Horn as Moodsville 30 in 1960. With the exception of a quartet recording released on Stompin' (Prestige 7456), the rest was another quintet with pianist Horace Parlan, drummer Art Taylor, Buddy Catlett on bass, and Willie Bobo on conga, issued as Goin' to the Meetin' in 1962 as Prestige 7242.

As one would expect from Davis, these tunes, all 15 of them, are deeply rooted in the R&B tradition and swing like mad. Apologies are made, seemingly, on the jacket and in the booklet for Davis' willingness to keep it simple and basic, but it was also his greatest strength. Few could get to the heart of the groove in a tune as fast as he could: check out his opening solo on "It's a Pity to Say Goodnight," which challenges the entire reason for Moodsville's existence. It's an up-tempo slammer with a punchy organ break and that gut-bucket soul/funk of Davis in his soloing. He rides the G major scale to the bank and back honking the accents and allowing Barretto and Scott to lend the flourishes. But it's in the solo that the tune itself happens, unwinding itself into a full-blown swinging odyssey with a tremendous climax. And while the Davis/Scott love fest is apparent on nearly every track, mutual respect of groove-ocity being at its highest point on tracks such as "Speak Low," "Just Friends," and "From This Moment On," it's the latter half of the album, which has been out of print for over 15 years, that's the real interest point. Goin' to the Meetin' showcases Horace Parlan in a way even his Blue Note records didn't. While Davis appears to be the leader because of his beat generation bluesed-out swing in the solos and brief melodic statements, it's Parlan, on the title track, "Pass the Hat," and "Night and Day," who carries the tunes and turns them into a very sophisticated and subtle kind of jazz that allows for both the simplicity of a raw-toned, grooved-out blues statement and simultaneously created the space for a harmonic improvisation that employed counterpoint and intervallic architecture for the rhythm section. Parlan's own soling is nothing less than soulful, but it's a hell of a lot more than soul he's playing. He's laying down the sophistication evidenced in the post-bop and modal playing of both Bill Evans and Horace Silver. With all of the changes and moving around of harmonics and grooves on Goin' to the Meetin' with Bobo highlighting ever nuance to make sure its heard, there is no doubt which of these two albums is superior, but given they are paired together, it offers two very different sides of Davis in unusual quintet settings.

Personnel:
Eddie "Lockjaw" Davis - Tenor Saxophone
1-6:
Shirley Scott - Organ
Arthur Edghill - Drums
Ray Barretto - Congas
George Duvivier - Bass
7-15:
Horace Parlan - Piano
Art Taylor - Drums
Willie Bobo - Congas
Buddy Catlett - Bass

Recording Date Apr. 12, 1960 (1-6) & May 1, 1962 (7-15)

tracklist:
from Misty session (Moodsville MV 30)
Eddie "Lockjaw" Davis; Shirley Scott

01. I Wished On The Moon
02. From This Moment On
03. It's A Pity To Say Goodnight [aka, Give Me A Goodnight Kiss]
04. Just Friends
05. The Moon Of Manakoora
06. Speak Low

Goin' To The Meeting (Prestige PR 7242)
07. Goin' To Meetin'
08. People Will Say We're In Love
09. Night And Day
10. Pass The Hat
11. Yes, Yes
12. Please Send Me Someone To Love
13. Our Love Is Here To Stay
14. Oh Babee
15. Little Cougar

Exact Audio Copy V1.0 beta 1 from 15. November 2010

EAC extraction logfile from 10. January 2013, 20:19

Eddie Lockjaw Davis / Goin' To The Meetin'

Used drive : TSSTcorpCDDVDW SH-S203N Adapter: 0 ID: 2

Read mode : Secure
Utilize accurate stream : Yes
Defeat audio cache : Yes
Make use of C2 pointers : No

Read offset correction : 6
Overread into Lead-In and Lead-Out : No
Fill up missing offset samples with silence : Yes
Delete leading and trailing silent blocks : No
Null samples used in CRC calculations : Yes
Used interface : Installed external ASPI interface
Gap handling : Appended to previous track

Used output format : User Defined Encoder
Selected bitrate : 768 kBit/s
Quality : High
Add ID3 tag : No
Command line compressor : C:\Program Files\Exact Audio Copy-NEW\Flac\flac.exe
Additional command line options : -8 -V -T "ARTIST=%a" -T "TITLE=%t" -T "ALBUM=%g" -T "DATE=%y" -T "TRACKNUMBER=%n" -T "TOTALTRACKS=%x" -T "GENRE=%m" -T "ALBUMARTIST=%v" -T "ALBUM ARTIST=%v" -T "COMMENT=EAC V1.01b1, Secure Mode, Test & Copy, AccurateRip, FL


TOC of the extracted CD

Track | Start | Length | Start sector | End sector
––––––––––––––––––––––––––––-
1 | 0:00.00 | 5:02.50 | 0 | 22699
2 | 5:02.50 | 4:24.30 | 22700 | 42529
3 | 9:27.05 | 5:44.07 | 42530 | 68336
4 | 15:11.12 | 6:17.60 | 68337 | 96671
5 | 21:28.72 | 7:03.60 | 96672 | 128456
6 | 28:32.57 | 6:53.08 | 128457 | 159439
7 | 35:25.65 | 5:27.47 | 159440 | 184011
8 | 40:53.37 | 3:05.08 | 184012 | 197894
9 | 43:58.45 | 5:00.35 | 197895 | 220429
10 | 48:59.05 | 3:41.22 | 220430 | 237026
11 | 52:40.27 | 3:48.38 | 237027 | 254164
12 | 56:28.65 | 3:59.60 | 254165 | 272149
13 | 60:28.50 | 2:40.50 | 272150 | 284199
14 | 63:09.25 | 5:35.30 | 284200 | 309354
15 | 68:44.55 | 4:15.12 | 309355 | 328491


Track 1

Filename J:\New Rips\Eddie Lockjaw Davis - Goin' To The Meetin' (2001) [FLAC]\01 - I Wished On The Moon.wav

Pre-gap length 0:00:02.00

Peak level 100.0 %
Extraction speed 4.0 X
Track quality 100.0 %
Test CRC 0A53D663
Copy CRC 0A53D663
Accurately ripped (confidence 1) [606B6E7F]
Copy OK

Track 2

Filename J:\New Rips\Eddie Lockjaw Davis - Goin' To The Meetin' (2001) [FLAC]\02 - From This Moment On.wav

Pre-gap length 0:00:02.35

Peak level 100.0 %
Extraction speed 4.4 X
Track quality 100.0 %
Test CRC 75F5FA4C
Copy CRC 75F5FA4C
Accurately ripped (confidence 1) [5D8EC08A]
Copy OK

Track 3

Filename J:\New Rips\Eddie Lockjaw Davis - Goin' To The Meetin' (2001) [FLAC]\03 - It's A Pity To Say Goodnight.wav

Pre-gap length 0:00:02.55

Peak level 100.0 %
Extraction speed 5.0 X
Track quality 100.0 %
Test CRC D8AA9A2E
Copy CRC D8AA9A2E
Accurately ripped (confidence 1) [A0694156]
Copy OK

Track 4

Filename J:\New Rips\Eddie Lockjaw Davis - Goin' To The Meetin' (2001) [FLAC]\04 - Just Friends.wav

Pre-gap length 0:00:02.62

Peak level 100.0 %
Extraction speed 5.5 X
Track quality 100.0 %
Test CRC 28B76BF3
Copy CRC 28B76BF3
Accurately ripped (confidence 1) [2EDF84A1]
Copy OK

Track 5

Filename J:\New Rips\Eddie Lockjaw Davis - Goin' To The Meetin' (2001) [FLAC]\05 - The Moon Of Mankoora.wav

Pre-gap length 0:00:02.50

Peak level 100.0 %
Extraction speed 6.1 X
Track quality 100.0 %
Test CRC 4FA96D3A
Copy CRC 4FA96D3A
Accurately ripped (confidence 1) [78A6A6AB]
Copy OK

Track 6

Filename J:\New Rips\Eddie Lockjaw Davis - Goin' To The Meetin' (2001) [FLAC]\06 - Speak Low.wav

Pre-gap length 0:00:01.27

Peak level 100.0 %
Extraction speed 6.4 X
Track quality 100.0 %
Test CRC A81CF47F
Copy CRC A81CF47F
Accurately ripped (confidence 1) [9C881B6A]
Copy OK

Track 7

Filename J:\New Rips\Eddie Lockjaw Davis - Goin' To The Meetin' (2001) [FLAC]\07 - Goin' To The Meetin'.wav

Pre-gap length 0:00:02.43

Peak level 100.0 %
Extraction speed 6.7 X
Track quality 100.0 %
Test CRC 4A289445
Copy CRC 4A289445
Accurately ripped (confidence 1) [CB076A03]
Copy OK

Track 8

Filename J:\New Rips\Eddie Lockjaw Davis - Goin' To The Meetin' (2001) [FLAC]\08 - People Will Say We're In Love.wav

Pre-gap length 0:00:02.25

Peak level 100.0 %
Extraction speed 6.4 X
Track quality 100.0 %
Test CRC 9467CB23
Copy CRC 9467CB23
Accurately ripped (confidence 1) [DE039AA8]
Copy OK

Track 9

Filename J:\New Rips\Eddie Lockjaw Davis - Goin' To The Meetin' (2001) [FLAC]\09 - Night And Day.wav

Pre-gap length 0:00:03.13

Peak level 100.0 %
Extraction speed 7.0 X
Track quality 100.0 %
Test CRC 29638C51
Copy CRC 29638C51
Accurately ripped (confidence 1) [D3B7FB7C]
Copy OK

Track 10

Filename J:\New Rips\Eddie Lockjaw Davis - Goin' To The Meetin' (2001) [FLAC]\10 - Pass The Hat.wav

Pre-gap length 0:00:03.08

Peak level 100.0 %
Extraction speed 7.0 X
Track quality 100.0 %
Test CRC 8D32D6FB
Copy CRC 8D32D6FB
Accurately ripped (confidence 1) [A5702A6C]
Copy OK

Track 11

Filename J:\New Rips\Eddie Lockjaw Davis - Goin' To The Meetin' (2001) [FLAC]\11 - Yes Yes.wav

Pre-gap length 0:00:02.70

Peak level 99.7 %
Extraction speed 7.2 X
Track quality 100.0 %
Test CRC 1F622380
Copy CRC 1F622380
Accurately ripped (confidence 1) [00DC17D7]
Copy OK

Track 12

Filename J:\New Rips\Eddie Lockjaw Davis - Goin' To The Meetin' (2001) [FLAC]\12 - Please Send Me Someone To Love.wav

Pre-gap length 0:00:03.23

Peak level 100.0 %
Extraction speed 7.4 X
Track quality 100.0 %
Test CRC 6DB4B551
Copy CRC 6DB4B551
Accurately ripped (confidence 1) [B9D5E341]
Copy OK

Track 13

Filename J:\New Rips\Eddie Lockjaw Davis - Goin' To The Meetin' (2001) [FLAC]\13 - Our Love Is Here To Stay.wav

Pre-gap length 0:00:03.31

Peak level 100.0 %
Extraction speed 7.0 X
Track quality 100.0 %
Test CRC 9D15A1E2
Copy CRC 9D15A1E2
Accurately ripped (confidence 1) [A38A364B]
Copy OK

Track 14

Filename J:\New Rips\Eddie Lockjaw Davis - Goin' To The Meetin' (2001) [FLAC]\14 - Oh Babee.wav

Pre-gap length 0:00:03.13

Peak level 93.4 %
Extraction speed 8.0 X
Track quality 100.0 %
Test CRC 8597B7D0
Copy CRC 8597B7D0
Accurately ripped (confidence 1) [7D3254FE]
Copy OK

Track 15

Filename J:\New Rips\Eddie Lockjaw Davis - Goin' To The Meetin' (2001) [FLAC]\15 - Little Cougar.wav

Pre-gap length 0:00:03.53

Peak level 100.0 %
Extraction speed 8.0 X
Track quality 100.0 %
Test CRC C6D6C422
Copy CRC C6D6C422
Accurately ripped (confidence 1) [FC899B7A]
Copy OK


All tracks accurately ripped

No errors occurred

End of status report

==== Log checksum 2E2592441514476A462683EA74E1EEA195C8680AC2430BA8261CC5E65F8EBF59 ====


Eddie "Lockjaw" Davis - Goin' To The Meetin' (1960-62) {Prestige PRCD-24259-2 rel 2001}

Eddie "Lockjaw" Davis - Goin' To The Meetin' (1960-62) {Prestige PRCD-24259-2 rel 2001}


===