Subcategories

Ella Fitzgerald – Sings The George And Ira Gerswin Song Book (1959)(3-CD Box Set)(Verve - Digitally Remastered By Dennis Drake)

Posted By: janwal46
Ella Fitzgerald – Sings The George And Ira Gerswin Song Book (1959)(3-CD Box Set)(Verve - Digitally Remastered By Dennis Drake)

Ella Fitzgerald – Sings The George And Ira Gerswin Song Book (1959)(3-CD Box Set)(Verve - Digitally Remastered By Dennis Drake)

Ella Fitzgerald – Sings The George And Ira Gerswin Song Book (1959)(3-CD Box Set)(Verve - Digitally Remastered By Dennis Drake)
1959 | Jazz | EAC RIP | FLAC+CUE+LOG+HQ-Covers(400Dpi) | 361Mb+334Mb+339Mb+57Mb

If I had to flee my pad with only one item, it would be this box set. OK, that's kind of cheating because I'd be taking more than one CD out with me, but what the heck – it's my place going up in smoke, isn't it? Ella's silky yet crystal-clear voice (ultimate thanks to remaster engineer Dennis Drake) with perfect intonation and inflection, combined with the unsurpassable songs of George and Ira Gershwin and the outstanding orchestrations of Nelson Riddle make this a breath taking audiophile classic in every sense of the word. If at least three of the songs in this box set don't give you goosebumps I will come over and mow your lawn (lol). The ending of "The Man I Love" will propel you into the troposphere. This set is a once-in-a-century combination of musical talent. This is pure joy and another prove that "audiophile" (then called "High Fidelity") already existed appr. 50 years ago !!!.

Tracklist:
Please, enlarge back cover

Exact Audio Copy V0.99 prebeta 4 from 23. January 2008

EAC extraction logfile from 24. May 2009, 22:18

Ella Fitzgerald / Sings the George & Ira Gershwin Songbook

Used drive : Optiarc DVD RW AD-7173A Adapter: 1 ID: 0

Read mode : Secure
Utilize accurate stream : Yes
Defeat audio cache : No
Make use of C2 pointers : Yes

Read offset correction : 48
Overread into Lead-In and Lead-Out : No
Fill up missing offset samples with silence : Yes
Delete leading and trailing silent blocks : No
Null samples used in CRC calculations : No
Used interface : Native Win32 interface for Win NT & 2000

Used output format : Internal WAV Routines
Sample format : 44.100 Hz; 16 Bit; Stereo


TOC of the extracted CD

Track | Start | Length | Start sector | End sector
––––––––––––––––––––––––––––-
1 | 0:00.33 | 3:18.45 | 33 | 14927
2 | 3:19.03 | 3:35.17 | 14928 | 31069
3 | 6:54.20 | 2:38.00 | 31070 | 42919
4 | 9:32.20 | 4:30.13 | 42920 | 63182
5 | 14:02.33 | 3:10.25 | 63183 | 77457
6 | 17:12.58 | 4:02.50 | 77458 | 95657
7 | 21:15.33 | 3:34.50 | 95658 | 111757
8 | 24:50.08 | 3:06.25 | 111758 | 125732
9 | 27:56.33 | 5:37.25 | 125733 | 151032
10 | 33:33.58 | 3:48.25 | 151033 | 168157
11 | 37:22.08 | 3:32.12 | 168158 | 184069
12 | 40:54.20 | 3:54.00 | 184070 | 201619
13 | 44:48.20 | 3:05.50 | 201620 | 215544
14 | 47:53.70 | 2:32.63 | 215545 | 227007
15 | 50:26.58 | 4:35.25 | 227008 | 247657
16 | 55:02.08 | 3:46.37 | 247658 | 264644
17 | 58:48.45 | 3:05.38 | 264645 | 278557


Range status and errors

Selected range

Filename G:\AVAXHOME\Ella Fitzgerald - Sings The George And Ira Song Book\Ella Fitzgerald - Sings the George & Ira Gershwin Songbook-CD1.wav

Peak level 91.6 %
Range quality 100.0 %
Copy CRC C6DB7CD8
Copy OK

No errors occurred


AccurateRip summary

Track 1 accurately ripped (confidence 4) [A206C1A2]
Track 2 accurately ripped (confidence 4) [C0C923F9]
Track 3 accurately ripped (confidence 3) [57A02C30]
Track 4 accurately ripped (confidence 4) [2124B434]
Track 5 accurately ripped (confidence 3) [F7B305D9]
Track 6 accurately ripped (confidence 4) [BD5C0558]
Track 7 accurately ripped (confidence 4) [AAF54395]
Track 8 accurately ripped (confidence 3) [8A2B485C]
Track 9 accurately ripped (confidence 4) [84D552F5]
Track 10 accurately ripped (confidence 3) [8319DA5F]
Track 11 accurately ripped (confidence 4) [65899F70]
Track 12 accurately ripped (confidence 3) [20435EEF]
Track 13 accurately ripped (confidence 3) [BBAFB008]
Track 14 accurately ripped (confidence 3) [1C396F18]
Track 15 accurately ripped (confidence 4) [6C9ED8A1]
Track 16 accurately ripped (confidence 3) [1374E068]
Track 17 accurately ripped (confidence 3) [9D2BF579]

All tracks accurately ripped

End of status report

RIPPED BY JANWAL46

Exact Audio Copy V0.99 prebeta 4 from 23. January 2008

EAC extraction logfile from 24. May 2009, 22:30

Ella Fitzgerald / Sings the George & Ira Gershwin Songbook

Used drive : Optiarc DVD RW AD-7173A Adapter: 1 ID: 0

Read mode : Secure
Utilize accurate stream : Yes
Defeat audio cache : No
Make use of C2 pointers : Yes

Read offset correction : 48
Overread into Lead-In and Lead-Out : No
Fill up missing offset samples with silence : Yes
Delete leading and trailing silent blocks : No
Null samples used in CRC calculations : No
Used interface : Native Win32 interface for Win NT & 2000

Used output format : Internal WAV Routines
Sample format : 44.100 Hz; 16 Bit; Stereo


TOC of the extracted CD

Track | Start | Length | Start sector | End sector
––––––––––––––––––––––––––––-
1 | 0:00.33 | 3:05.20 | 33 | 13927
2 | 3:05.53 | 3:05.55 | 13928 | 27857
3 | 6:11.33 | 3:11.00 | 27858 | 42182
4 | 9:22.33 | 3:09.12 | 42183 | 56369
5 | 12:31.45 | 3:34.38 | 56370 | 72457
6 | 16:06.08 | 2:31.37 | 72458 | 83819
7 | 18:37.45 | 3:26.38 | 83820 | 99307
8 | 22:04.08 | 2:53.62 | 99308 | 112344
9 | 24:57.70 | 3:36.63 | 112345 | 128607
10 | 28:34.58 | 2:37.00 | 128608 | 140382
11 | 31:11.58 | 2:23.62 | 140383 | 151169
12 | 33:35.45 | 3:30.38 | 151170 | 166957
13 | 37:06.08 | 2:42.00 | 166958 | 179107
14 | 39:48.08 | 3:31.50 | 179108 | 194982
15 | 43:19.58 | 3:10.25 | 194983 | 209257
16 | 46:30.08 | 3:49.25 | 209258 | 226457
17 | 50:19.33 | 3:29.12 | 226458 | 242144
18 | 53:48.45 | 2:47.13 | 242145 | 254682


Range status and errors

Selected range

Filename G:\AVAXHOME\Ella Fitzgerald - Sings The George And Ira Song Book\Ella Fitzgerald - Sings the George & Ira Gershwin Songbook-CD2.wav

Peak level 92.5 %
Range quality 99.9 %
Copy CRC B67B7EB9
Copy OK

No errors occurred


AccurateRip summary

Track 1 accurately ripped (confidence 5) [A81EB0DB]
Track 2 accurately ripped (confidence 5) [01F13D7A]
Track 3 accurately ripped (confidence 5) [95758E2A]
Track 4 accurately ripped (confidence 5) [D90F91F6]
Track 5 accurately ripped (confidence 6) [DF7175B0]
Track 6 accurately ripped (confidence 5) [4028044D]
Track 7 accurately ripped (confidence 5) [B8EBDEF9]
Track 8 accurately ripped (confidence 5) [2CF88FDB]
Track 9 accurately ripped (confidence 5) [5E92B00F]
Track 10 accurately ripped (confidence 5) [C66B579D]
Track 11 accurately ripped (confidence 5) [D1D42425]
Track 12 accurately ripped (confidence 6) [8735F233]
Track 13 accurately ripped (confidence 5) [B1A6E44A]
Track 14 accurately ripped (confidence 5) [7B779024]
Track 15 accurately ripped (confidence 5) [E0941564]
Track 16 accurately ripped (confidence 5) [E3D2A0BA]
Track 17 accurately ripped (confidence 5) [DC143C1F]
Track 18 accurately ripped (confidence 6) [B9EBF7DC]

All tracks accurately ripped

End of status report

RIPPED BY JANWAL46

Exact Audio Copy V0.99 prebeta 4 from 23. January 2008

EAC extraction logfile from 24. May 2009, 22:37

Ella Fitzgerald / Sings The George & Ira Gershwin Song Book Disc 3)

Used drive : Optiarc DVD RW AD-7173A Adapter: 1 ID: 0

Read mode : Secure
Utilize accurate stream : Yes
Defeat audio cache : No
Make use of C2 pointers : Yes

Read offset correction : 48
Overread into Lead-In and Lead-Out : No
Fill up missing offset samples with silence : Yes
Delete leading and trailing silent blocks : No
Null samples used in CRC calculations : No
Used interface : Native Win32 interface for Win NT & 2000

Used output format : Internal WAV Routines
Sample format : 44.100 Hz; 16 Bit; Stereo


TOC of the extracted CD

Track | Start | Length | Start sector | End sector
––––––––––––––––––––––––––––-
1 | 0:00.33 | 3:27.00 | 33 | 15557
2 | 3:27.33 | 2:56.55 | 15558 | 28812
3 | 6:24.13 | 3:54.32 | 28813 | 46394
4 | 10:18.45 | 3:21.05 | 46395 | 61474
5 | 13:39.50 | 3:25.68 | 61475 | 76917
6 | 17:05.43 | 3:09.05 | 76918 | 91097
7 | 20:14.48 | 3:53.17 | 91098 | 108589
8 | 24:07.65 | 2:15.43 | 108590 | 118757
9 | 26:23.33 | 3:11.00 | 118758 | 133082
10 | 29:34.33 | 4:52.50 | 133083 | 155032
11 | 34:27.08 | 2:49.25 | 155033 | 167732
12 | 37:16.33 | 3:48.62 | 167733 | 184894
13 | 41:05.20 | 3:22.38 | 184895 | 200082
14 | 44:27.58 | 3:23.30 | 200083 | 215337
15 | 47:51.13 | 3:21.45 | 215338 | 230457
16 | 51:12.58 | 3:41.12 | 230458 | 247044
17 | 54:53.70 | 3:51.38 | 247045 | 264407
18 | 58:45.33 | 3:07.00 | 264408 | 278432


Range status and errors

Selected range

Filename G:\AVAXHOME\Ella Fitzgerald - Sings The George And Ira Song Book\Ella Fitzgerald - Sings the George & Ira Gershwin Songbook-CD3.wav

Peak level 99.4 %
Range quality 99.9 %
Copy CRC 6B303496
Copy OK

No errors occurred


AccurateRip summary

Track 1 accurately ripped (confidence 3) [7A0A4234]
Track 2 accurately ripped (confidence 3) [56247F16]
Track 3 accurately ripped (confidence 3) [5868F234]
Track 4 accurately ripped (confidence 4) [1A489FCF]
Track 5 accurately ripped (confidence 3) [27174A36]
Track 6 accurately ripped (confidence 3) [39CB1C04]
Track 7 accurately ripped (confidence 3) [FD522E80]
Track 8 accurately ripped (confidence 3) [F1E43545]
Track 9 accurately ripped (confidence 4) [0E6A6857]
Track 10 accurately ripped (confidence 4) [18858AD7]
Track 11 accurately ripped (confidence 3) [A6516EBA]
Track 12 accurately ripped (confidence 3) [C6DD07F2]
Track 13 accurately ripped (confidence 4) [EFF8D603]
Track 14 accurately ripped (confidence 3) [88EA80AE]
Track 15 accurately ripped (confidence 3) [57F4DFA0]
Track 16 accurately ripped (confidence 3) [E3790D13]
Track 17 accurately ripped (confidence 3) [CF87C6D3]
Track 18 accurately ripped (confidence 4) [CCB56841]

All tracks accurately ripped

End of status report

RIPPED BY JANWAL46

RS Links:

CD1:


CD2:


CD3: