Tags
Language
Tags

Duke Ellington - Early Ellington: The Complete Brunswick and Vocalion Recordings 1926-1931 (1994) [3CD Set] {Decca Jazz}

Posted By: ruskaval
Duke Ellington - Early Ellington: The Complete Brunswick and Vocalion Recordings 1926-1931 (1994) [3CD Set] {Decca Jazz}

Duke Ellington - Early Ellington: The Complete Brunswick and Vocalion Recordings 1926-1931 (1994) [3CD Set] {Decca Jazz}
XLD rip (secure mode) | FLAC (tracks)+CUE+LOG -> 625 Mb | MP3 @320 -> 429 Mb
Full Artwork @ 300 dpi (png) -> 140 Mb | 5% repair rar
© 1994 Decca Jazz / MCA / GRP | GRD-3-640
Jazz / Big Band / Early Jazz / Swing

Duke Ellington recorded for Brunswick from 1926 to 1931, the period in which his great talent and great orchestra first flowered, whether the band was recording under his own name or such pseudonyms as the Washingtonians or the Jungle Band. The earliest recordings are highlighted by the presence of trumpeter Bubber Miley and trombonist "Tricky Sam" Nanton, whose brilliant work with plunger mutes for vocal effects did much to define the early sound–which, in turn, rapidly evolved and expanded with the additions of Harry Carney, Johnny Hodges, and Cootie Williams. While the band's repertoire included many blues and popular songs, its distinctive identity emerges from early renditions of such trademark pieces as "East St. Louis Toodle-O," "Black and Tan Fantasy," "The Mooche," and "Mood Indigo." By the end of the period covered in this set, Ellington's ambitious later suites–some of them CD-length–are portended in the elegant extended composition "Creole Rhapsody," his clearly superior contribution to the symphonic jazz movement.
Duke Ellington - Early Ellington: The Complete Brunswick and Vocalion Recordings 1926-1931 (1994) [3CD Set] {Decca Jazz}

This three-CD set, which has all of Duke Ellington's recordings for the Brunswick and Vocalion labels, dwarfs all of the earlier reissues that Decca and MCA have put out of this important material. Starting with the first session in which the Ellington Orchestra sounds distinctive ("East St. Louis Toodle-oo" and "Birmingham Breakdown" from November 29, 1926) and progressing through the Cotton Club years, this essential release (which contains 67 performances) adds a few "new" alternate takes and rare items ("Soliloquy" and a few titles by the "Six Jolly Jesters") to make this collection truly complete, at least for MCA's holdings (since Ellington also recorded for Columbia- and Victor-owned labels during the same period).

Duke Ellington - Early Ellington: The Complete Brunswick and Vocalion Recordings 1926-1931 (1994) [3CD Set] {Decca Jazz}


With such major soloists as trumpeters Bubber Miley (and his replacement Cootie Williams), Freddy Jenkins, and Arthur Whetsol, trombonist Tricky Sam Nanton, clarinetist Barney Bigard, altoist Johnny Hodges, baritonist Harry Carney, and the pianist/leader, along with the classic arrangements/compositions, this set is essential for all serious jazz collections.
Duke Ellington - Early Ellington: The Complete Brunswick and Vocalion Recordings 1926-1931 (1994) [3CD Set] {Decca Jazz}


tracklist:
Disc: 1

01. East St. Louis Toodle-o (1st Version)
02. Birmingham Breakdown (1st Version)
03. Immigration Blues
04. The Creeper (1st Take)
05. The Creeper (2nd Take)
06. New Orleans Low-Down
07. Song Of The Cotton Field
08. Birmingham Breakdown (2nd Version)
09. East St. Louis Toodle-o (2nd Version)
10. Black And Tan Fantasy
11. Soliloquy
12. Red Hot Band
13. Doin' The Frog
14. Take It Easy
15. Jubilee Stomp
16. Black Beauty (1st Take)
17. Black Beauty (2nd Take)
18. Yellow Dog Blues
19. Tishomingo Blues
20. Awful Sad
21. The Mooche
22. Louisiana

Duke Ellington - Early Ellington: The Complete Brunswick and Vocalion Recordings 1926-1931 (1994) [3CD Set] {Decca Jazz}


Disc: 2
01. Doin' The Voom Voom
02. Tiger Rag-Part I (Take A)
03. Tiger Rag-Part I (Take B)
04. Tiger Rag-Part II
05. Rent Party Blues
06. Paducah
07. Harlem Flat Blues
08. (What Did I Do To Be So) Black And Blue
09. Jungle Jamboree
10. Ain't Misbehavin'
11. Doin' The New Low Down
12. Jolly Wog
13. Jazz Convulsions
14. Six Or Seven Times (Take A Or B)
15. Six Or Seven Times (Take B Or A)
16. Goin' Nuts
17. Oklahoma Stomp (Take A)
18. Oklahoma Stomp (Take B)
19. Sweet Mama
20. Wall Street Wail (Take A)
21. Wall Street Wail (Take B)
22. Cincinnati Daddy

Duke Ellington - Early Ellington: The Complete Brunswick and Vocalion Recordings 1926-1931 (1994) [3CD Set] {Decca Jazz}


Disc: 3
01. Maori (A Samoan Dance) (1st Version)
02. When Your Smiling (The Whole World Smiles With You) (Take A)
03. When Your Smiling (The Whole World Smiles With You) (Take B)
04. Maori (A Samoan Dance) (2nd Version) (Take A)
05. Maori (A Samoan Dance) (2nd Version) (Take B)
06. Admiration
07. Double Check Stomp
08. Accordian Joe (Take A)
09. Accordian Joe (Take B)
10. Cotton Club Stomp (Take A)
11. Cotton Club Stomp (Take B)
12. Runnin Wild
13. Mood Indigo
14. Home Agian Blues
15. Wang-Wang Blues
16. Rockin' Chair
17. Rockin' In Rhythm
18. Twelfth Street Rag
19. The Peanut Vendor
20. Creole Rhapsody-Part I
21. Creole Rhapsody-Part II (Take A)
22. Creole Rhapsody-Part II (Take AA)
23. Is That Religion?

Duke Ellington - Early Ellington: The Complete Brunswick and Vocalion Recordings 1926-1931 (1994) [3CD Set] {Decca Jazz}


X Lossless Decoder version 20130407 (143.0)

XLD extraction logfile from 2014-10-01 09:55:13 -0700

Duke Ellington / Early Ellington, Disc One - 1926-28

Used drive : HL-DT-ST DVDRW GA32N (revision KE06)
Media type : Pressed CD

Ripper mode : XLD Secure Ripper
Disable audio cache : OK for the drive with a cache less than 1375KiB
Make use of C2 pointers : NO
Read offset correction : 103
Max retry count : 100
Gap status : Analyzed, Appended (except HTOA)

TOC of the extracted CD
Track | Start | Length | Start sector | End sector
––––––––––––––––––––––––––––-
1 | 00:00:00 | 02:54:47 | 0 | 13096
2 | 02:54:47 | 02:47:18 | 13097 | 25639
3 | 05:41:65 | 03:02:10 | 25640 | 39299
4 | 08:44:00 | 02:51:50 | 39300 | 52174
5 | 11:35:50 | 02:49:17 | 52175 | 64866
6 | 14:24:67 | 03:00:35 | 64867 | 78401
7 | 17:25:27 | 03:00:50 | 78402 | 91951
8 | 20:26:02 | 02:41:08 | 91952 | 104034
9 | 23:07:10 | 03:02:02 | 104035 | 117686
10 | 26:09:12 | 03:19:40 | 117687 | 132651
11 | 29:28:52 | 03:09:58 | 132652 | 146884
12 | 32:38:35 | 02:55:52 | 146885 | 160061
13 | 35:34:12 | 03:10:70 | 160062 | 174381
14 | 38:45:07 | 02:42:18 | 174382 | 186549
15 | 41:27:25 | 02:46:45 | 186550 | 199044
16 | 44:13:70 | 03:08:07 | 199045 | 213151
17 | 47:22:02 | 03:14:48 | 213152 | 227749
18 | 50:36:50 | 02:58:27 | 227750 | 241126
19 | 53:35:02 | 03:01:18 | 241127 | 254719
20 | 56:36:20 | 03:18:27 | 254720 | 269596
21 | 59:54:47 | 03:13:28 | 269597 | 284099
22 | 63:08:00 | 03:01:67 | 284100 | 297741

List of alternate offset correction values
# | Absolute | Relative | Confidence
–––––––––––––––––––––
1 | -632 | -735 | 2

AccurateRip Summary (DiscID: 00337f47-033aedd7-5e0f8116)
Track 01 : OK (v1+v2, confidence 10/12)
Track 02 : OK (v1+v2, confidence 10/12)
Track 03 : OK (v1+v2, confidence 10/12)
Track 04 : OK (v1+v2, confidence 10/12)
Track 05 : OK (v1+v2, confidence 10/12)
Track 06 : OK (v1+v2, confidence 10/12)
Track 07 : OK (v1+v2, confidence 10/12)
Track 08 : OK (v1+v2, confidence 10/12)
Track 09 : OK (v1+v2, confidence 10/12)
Track 10 : OK (v1+v2, confidence 10/12)
Track 11 : OK (v1+v2, confidence 10/12)
Track 12 : OK (v1+v2, confidence 10/12)
Track 13 : OK (v1+v2, confidence 10/12)
Track 14 : OK (v1+v2, confidence 10/12)
Track 15 : OK (v1+v2, confidence 10/12)
Track 16 : OK (v1+v2, confidence 10/12)
Track 17 : OK (v1+v2, confidence 10/12)
Track 18 : OK (v1+v2, confidence 10/12)
Track 19 : OK (v1+v2, confidence 10/12)
Track 20 : OK (v1+v2, confidence 10/12)
Track 21 : OK (v1+v2, confidence 10/12)
Track 22 : OK (v1+v2, confidence 10/12)
->All tracks accurately ripped.

All Tracks
Album gain : -5.00 dB
Peak : 0.999969
Statistics
Read error : 0
Jitter error (maybe fixed) : 0
Retry sector count : 0
Damaged sector count : 0

Track 01
Filename : /Volumes/OWC Mercury Elite Pro - #2/Needs something/ Music/Duke Ellington - Early Ellington The Complete Brunswick and Vocalion Recordings 1926-1931 () [FLAC] {Decca Jazz GRD-3-640}/CD1/01 - East St Louis Toodle-o (1st version).flac
Pre-gap length : 00:02:00

Track gain : -3.02 dB
Peak : 0.883423
CRC32 hash (test run) : 2D8638E6
CRC32 hash : 2D8638E6
CRC32 hash (skip zero) : 6DCCB14F
AccurateRip v1 signature : 0AE55275
AccurateRip v2 signature : 0C47426F
->Accurately ripped (v1+v2, confidence 5+5/12)
Statistics
Read error : 0
Jitter error (maybe fixed) : 0
Retry sector count : 0
Damaged sector count : 0

Track 02
Filename : /Volumes/OWC Mercury Elite Pro - #2/Needs something/ Music/Duke Ellington - Early Ellington The Complete Brunswick and Vocalion Recordings 1926-1931 () [FLAC] {Decca Jazz GRD-3-640}/CD1/02 - Birmingham Breakdown (1st version).flac
Pre-gap length : 00:02:25

Track gain : -2.90 dB
Peak : 0.834900
CRC32 hash (test run) : F40C1747
CRC32 hash : F40C1747
CRC32 hash (skip zero) : 65603FF4
AccurateRip v1 signature : DC32A5AB
AccurateRip v2 signature : 3FE8F88E
->Accurately ripped (v1+v2, confidence 5+5/12)
Statistics
Read error : 0
Jitter error (maybe fixed) : 0
Retry sector count : 0
Damaged sector count : 0

Track 03
Filename : /Volumes/OWC Mercury Elite Pro - #2/Needs something/ Music/Duke Ellington - Early Ellington The Complete Brunswick and Vocalion Recordings 1926-1931 () [FLAC] {Decca Jazz GRD-3-640}/CD1/03 - Immigration Blues.flac
Pre-gap length : 00:02:28

Track gain : -2.94 dB
Peak : 0.725739
CRC32 hash (test run) : 055C3599
CRC32 hash : 055C3599
CRC32 hash (skip zero) : 492DCD61
AccurateRip v1 signature : 99D68639
AccurateRip v2 signature : 25A7DB23
->Accurately ripped (v1+v2, confidence 5+5/12)
Statistics
Read error : 0
Jitter error (maybe fixed) : 0
Retry sector count : 0
Damaged sector count : 0

Track 04
Filename : /Volumes/OWC Mercury Elite Pro - #2/Needs something/ Music/Duke Ellington - Early Ellington The Complete Brunswick and Vocalion Recordings 1926-1931 () [FLAC] {Decca Jazz GRD-3-640}/CD1/04 - The Creeper (1st take).flac
Pre-gap length : 00:02:28

Track gain : -4.03 dB
Peak : 0.867096
CRC32 hash (test run) : 2C638978
CRC32 hash : 2C638978
CRC32 hash (skip zero) : 40B4F4C5
AccurateRip v1 signature : 7F8F19DA
AccurateRip v2 signature : 8F28CAE1
->Accurately ripped (v1+v2, confidence 5+5/12)
Statistics
Read error : 0
Jitter error (maybe fixed) : 0
Retry sector count : 0
Damaged sector count : 0

Track 05
Filename : /Volumes/OWC Mercury Elite Pro - #2/Needs something/ Music/Duke Ellington - Early Ellington The Complete Brunswick and Vocalion Recordings 1926-1931 () [FLAC] {Decca Jazz GRD-3-640}/CD1/05 - The Creeper (2nd take).flac
Pre-gap length : 00:02:28

Track gain : -4.49 dB
Peak : 0.999939
CRC32 hash (test run) : 30BE021C
CRC32 hash : 30BE021C
CRC32 hash (skip zero) : CF9224E2
AccurateRip v1 signature : 16BA53EA
AccurateRip v2 signature : 14AA0E12
->Accurately ripped (v1+v2, confidence 5+5/12)
Statistics
Read error : 0
Jitter error (maybe fixed) : 0
Retry sector count : 0
Damaged sector count : 0

Track 06
Filename : /Volumes/OWC Mercury Elite Pro - #2/Needs something/ Music/Duke Ellington - Early Ellington The Complete Brunswick and Vocalion Recordings 1926-1931 () [FLAC] {Decca Jazz GRD-3-640}/CD1/06 - New Orleans Low-Down.flac
Pre-gap length : 00:02:15

Track gain : -2.35 dB
Peak : 0.649109
CRC32 hash (test run) : ED5CB45A
CRC32 hash : ED5CB45A
CRC32 hash (skip zero) : 76318B7D
AccurateRip v1 signature : 0B5FEC7A
AccurateRip v2 signature : C477004E
->Accurately ripped (v1+v2, confidence 5+5/12)
Statistics
Read error : 0
Jitter error (maybe fixed) : 0
Retry sector count : 0
Damaged sector count : 0

Track 07
Filename : /Volumes/OWC Mercury Elite Pro - #2/Needs something/ Music/Duke Ellington - Early Ellington The Complete Brunswick and Vocalion Recordings 1926-1931 () [FLAC] {Decca Jazz GRD-3-640}/CD1/07 - Song of the Cotton Field.flac
Pre-gap length : 00:02:22

Track gain : -4.66 dB
Peak : 0.908600
CRC32 hash (test run) : 44F2A79F
CRC32 hash : 44F2A79F
CRC32 hash (skip zero) : A1E7710E
AccurateRip v1 signature : 668E66BB
AccurateRip v2 signature : 7F8AACF3
->Accurately ripped (v1+v2, confidence 5+5/12)
Statistics
Read error : 0
Jitter error (maybe fixed) : 0
Retry sector count : 0
Damaged sector count : 0

Track 08
Filename : /Volumes/OWC Mercury Elite Pro - #2/Needs something/ Music/Duke Ellington - Early Ellington The Complete Brunswick and Vocalion Recordings 1926-1931 () [FLAC] {Decca Jazz GRD-3-640}/CD1/08 - Birmingham Breakdown (2nd version).flac
Pre-gap length : 00:02:27

Track gain : -3.94 dB
Peak : 0.847717
CRC32 hash (test run) : CCD6C6CE
CRC32 hash : CCD6C6CE
CRC32 hash (skip zero) : 0F4B286F
AccurateRip v1 signature : 957CFAB2
AccurateRip v2 signature : 8C464EE4
->Accurately ripped (v1+v2, confidence 5+5/12)
Statistics
Read error : 0
Jitter error (maybe fixed) : 0
Retry sector count : 0
Damaged sector count : 0

Track 09
Filename : /Volumes/OWC Mercury Elite Pro - #2/Needs something/ Music/Duke Ellington - Early Ellington The Complete Brunswick and Vocalion Recordings 1926-1931 () [FLAC] {Decca Jazz GRD-3-640}/CD1/09 - East St. Louis Toodle-o (2nd version).flac
Pre-gap length : 00:02:28

Track gain : -6.75 dB
Peak : 0.891632
CRC32 hash (test run) : 23076CF6
CRC32 hash : 23076CF6
CRC32 hash (skip zero) : 6AF75609
AccurateRip v1 signature : 1C63E240
AccurateRip v2 signature : D90092EC
->Accurately ripped (v1+v2, confidence 5+5/12)
Statistics
Read error : 0
Jitter error (maybe fixed) : 0
Retry sector count : 0
Damaged sector count : 0

Track 10
Filename : /Volumes/OWC Mercury Elite Pro - #2/Needs something/ Music/Duke Ellington - Early Ellington The Complete Brunswick and Vocalion Recordings 1926-1931 () [FLAC] {Decca Jazz GRD-3-640}/CD1/10 - Black and Tan Fantasy.flac
Pre-gap length : 00:02:27

Track gain : -5.14 dB
Peak : 0.827789
CRC32 hash (test run) : 22712CB3
CRC32 hash : 22712CB3
CRC32 hash (skip zero) : DD9BA794
AccurateRip v1 signature : B3906079
AccurateRip v2 signature : 513520D5
->Accurately ripped (v1+v2, confidence 5+5/12)
Statistics
Read error : 0
Jitter error (maybe fixed) : 0
Retry sector count : 0
Damaged sector count : 0

Track 11
Filename : /Volumes/OWC Mercury Elite Pro - #2/Needs something/ Music/Duke Ellington - Early Ellington The Complete Brunswick and Vocalion Recordings 1926-1931 () [FLAC] {Decca Jazz GRD-3-640}/CD1/11 - Soliloquy.flac
Pre-gap length : 00:02:27

Track gain : -3.54 dB
Peak : 0.847046
CRC32 hash (test run) : E8E34716
CRC32 hash : E8E34716
CRC32 hash (skip zero) : D0F93D32
AccurateRip v1 signature : F6EED805
AccurateRip v2 signature : BE44E1DB
->Accurately ripped (v1+v2, confidence 5+5/12)
Statistics
Read error : 0
Jitter error (maybe fixed) : 0
Retry sector count : 0
Damaged sector count : 0

Track 12
Filename : /Volumes/OWC Mercury Elite Pro - #2/Needs something/ Music/Duke Ellington - Early Ellington The Complete Brunswick and Vocalion Recordings 1926-1931 () [FLAC] {Decca Jazz GRD-3-640}/CD1/12 - Red Hot Band.flac
Pre-gap length : 00:02:28

Track gain : -5.85 dB
Peak : 0.730560
CRC32 hash (test run) : 353DD375
CRC32 hash : 353DD375
CRC32 hash (skip zero) : 669029E4
AccurateRip v1 signature : A2BF6958
AccurateRip v2 signature : 25AB0D56
->Accurately ripped (v1+v2, confidence 5+5/12)
Statistics
Read error : 0
Jitter error (maybe fixed) : 0
Retry sector count : 0
Damaged sector count : 0

Track 13
Filename : /Volumes/OWC Mercury Elite Pro - #2/Needs something/ Music/Duke Ellington - Early Ellington The Complete Brunswick and Vocalion Recordings 1926-1931 () [FLAC] {Decca Jazz GRD-3-640}/CD1/13 - Doin' the Frog.flac
Pre-gap length : 00:02:27

Track gain : -5.98 dB
Peak : 0.701294
CRC32 hash (test run) : AC468417
CRC32 hash : AC468417
CRC32 hash (skip zero) : 5773A7EF
AccurateRip v1 signature : CDFC2FF1
AccurateRip v2 signature : 003BB97A
->Accurately ripped (v1+v2, confidence 5+5/12)
Statistics
Read error : 0
Jitter error (maybe fixed) : 0
Retry sector count : 0
Damaged sector count : 0

Track 14
Filename : /Volumes/OWC Mercury Elite Pro - #2/Needs something/ Music/Duke Ellington - Early Ellington The Complete Brunswick and Vocalion Recordings 1926-1931 () [FLAC] {Decca Jazz GRD-3-640}/CD1/14 - Take It Easy.flac
Pre-gap length : 00:02:27

Track gain : -4.29 dB
Peak : 0.846466
CRC32 hash (test run) : 65F83FE4
CRC32 hash : 65F83FE4
CRC32 hash (skip zero) : 8BB87D82
AccurateRip v1 signature : 8DAA8AB6
AccurateRip v2 signature : BF3E1F47
->Accurately ripped (v1+v2, confidence 5+5/12)
Statistics
Read error : 0
Jitter error (maybe fixed) : 0
Retry sector count : 0
Damaged sector count : 0

Track 15
Filename : /Volumes/OWC Mercury Elite Pro - #2/Needs something/ Music/Duke Ellington - Early Ellington The Complete Brunswick and Vocalion Recordings 1926-1931 () [FLAC] {Decca Jazz GRD-3-640}/CD1/15 - Jubilee Stomp.flac
Pre-gap length : 00:02:28

Track gain : -6.54 dB
Peak : 0.983887
CRC32 hash (test run) : 233D750D
CRC32 hash : 233D750D
CRC32 hash (skip zero) : FE1579EC
AccurateRip v1 signature : 12860432
AccurateRip v2 signature : E9D0D4F0
->Accurately ripped (v1+v2, confidence 5+5/12)
Statistics
Read error : 0
Jitter error (maybe fixed) : 0
Retry sector count : 0
Damaged sector count : 0

Track 16
Filename : /Volumes/OWC Mercury Elite Pro - #2/Needs something/ Music/Duke Ellington - Early Ellington The Complete Brunswick and Vocalion Recordings 1926-1931 () [FLAC] {Decca Jazz GRD-3-640}/CD1/16 - Black Beauty (1st take).flac
Pre-gap length : 00:02:28

Track gain : -5.34 dB
Peak : 0.907898
CRC32 hash (test run) : E124B5B7
CRC32 hash : E124B5B7
CRC32 hash (skip zero) : BA044A81
AccurateRip v1 signature : 8DEA4171
AccurateRip v2 signature : E8189233
->Accurately ripped (v1+v2, confidence 5+5/12)
Statistics
Read error : 0
Jitter error (maybe fixed) : 0
Retry sector count : 0
Damaged sector count : 0

Track 17
Filename : /Volumes/OWC Mercury Elite Pro - #2/Needs something/ Music/Duke Ellington - Early Ellington The Complete Brunswick and Vocalion Recordings 1926-1931 () [FLAC] {Decca Jazz GRD-3-640}/CD1/17 - Black Beauty (2nd take).flac
Pre-gap length : 00:02:27

Track gain : -5.31 dB
Peak : 0.999969
CRC32 hash (test run) : B03E4F30
CRC32 hash : B03E4F30
CRC32 hash (skip zero) : 786A712F
AccurateRip v1 signature : 94E21378
AccurateRip v2 signature : 20BDA094
->Accurately ripped (v1+v2, confidence 5+5/12)
Statistics
Read error : 0
Jitter error (maybe fixed) : 0
Retry sector count : 0
Damaged sector count : 0

Track 18
Filename : /Volumes/OWC Mercury Elite Pro - #2/Needs something/ Music/Duke Ellington - Early Ellington The Complete Brunswick and Vocalion Recordings 1926-1931 () [FLAC] {Decca Jazz GRD-3-640}/CD1/18 - Yellow Dog Blues.flac
Pre-gap length : 00:02:28

Track gain : -6.05 dB
Peak : 0.786896
CRC32 hash (test run) : 93BB827B
CRC32 hash : 93BB827B
CRC32 hash (skip zero) : FCC8B2D0
AccurateRip v1 signature : E7AAEEE5
AccurateRip v2 signature : F6DDED79
->Accurately ripped (v1+v2, confidence 5+5/12)
Statistics
Read error : 0
Jitter error (maybe fixed) : 0
Retry sector count : 0
Damaged sector count : 0

Track 19
Filename : /Volumes/OWC Mercury Elite Pro - #2/Needs something/ Music/Duke Ellington - Early Ellington The Complete Brunswick and Vocalion Recordings 1926-1931 () [FLAC] {Decca Jazz GRD-3-640}/CD1/19 - Tishomingo Blues.flac
Pre-gap length : 00:02:27

Track gain : -6.15 dB
Peak : 0.950928
CRC32 hash (test run) : 824D04EC
CRC32 hash : 824D04EC
CRC32 hash (skip zero) : 6B63B0DE
AccurateRip v1 signature : C87C57FE
AccurateRip v2 signature : 40F04065
->Accurately ripped (v1+v2, confidence 5+5/12)
Statistics
Read error : 0
Jitter error (maybe fixed) : 0
Retry sector count : 0
Damaged sector count : 0

Track 20
Filename : /Volumes/OWC Mercury Elite Pro - #2/Needs something/ Music/Duke Ellington - Early Ellington The Complete Brunswick and Vocalion Recordings 1926-1931 () [FLAC] {Decca Jazz GRD-3-640}/CD1/20 - Awful Sad.flac
Pre-gap length : 00:02:28

Track gain : -6.24 dB
Peak : 0.806244
CRC32 hash (test run) : 8C26B1CE
CRC32 hash : 8C26B1CE
CRC32 hash (skip zero) : EC102DD2
AccurateRip v1 signature : 5AC9E1C8
AccurateRip v2 signature : F99525FF
->Accurately ripped (v1+v2, confidence 5+5/12)
Statistics
Read error : 0
Jitter error (maybe fixed) : 0
Retry sector count : 0
Damaged sector count : 0

Track 21
Filename : /Volumes/OWC Mercury Elite Pro - #2/Needs something/ Music/Duke Ellington - Early Ellington The Complete Brunswick and Vocalion Recordings 1926-1931 () [FLAC] {Decca Jazz GRD-3-640}/CD1/21 - The Mooche.flac
Pre-gap length : 00:02:27

Track gain : -3.78 dB
Peak : 0.702728
CRC32 hash (test run) : 3560013E
CRC32 hash : 3560013E
CRC32 hash (skip zero) : C29CB496
AccurateRip v1 signature : 5B56DCDF
AccurateRip v2 signature : 1A50FC15
->Accurately ripped (v1+v2, confidence 5+5/12)
Statistics
Read error : 0
Jitter error (maybe fixed) : 0
Retry sector count : 0
Damaged sector count : 0

Track 22
Filename : /Volumes/OWC Mercury Elite Pro - #2/Needs something/ Music/Duke Ellington - Early Ellington The Complete Brunswick and Vocalion Recordings 1926-1931 () [FLAC] {Decca Jazz GRD-3-640}/CD1/22 - Louisiana.flac
Pre-gap length : 00:02:30

Track gain : -2.48 dB
Peak : 0.690704
CRC32 hash (test run) : 7C139FCA
CRC32 hash : 7C139FCA
CRC32 hash (skip zero) : F69A2FB7
AccurateRip v1 signature : ADC5DDC5
AccurateRip v2 signature : 9C67954B
->Accurately ripped (v1+v2, confidence 5+5/12)
Statistics
Read error : 0
Jitter error (maybe fixed) : 0
Retry sector count : 0
Damaged sector count : 0

No errors occurred

End of status report

––-BEGIN XLD SIGNATURE––-
W8oWK9aDw892BbqwWg8bd.lmLdKhat88yD0.gxQAwofpe0KcqGr2NUtA9FfHBB9crzPhmsM4HMoKEZ3Gjg.PCfxbpKm1OLMt0mdxBbW
––-END XLD SIGNATURE––-

X Lossless Decoder version 20130407 (143.0)

XLD extraction logfile from 2014-10-01 10:47:53 -0700

Duke Ellington / Early Ellington, Disc Two - 1929

Used drive : HL-DT-ST DVDRW GA32N (revision KE06)
Media type : Pressed CD

Ripper mode : XLD Secure Ripper
Disable audio cache : OK for the drive with a cache less than 1375KiB
Make use of C2 pointers : NO
Read offset correction : 103
Max retry count : 100
Gap status : Analyzed, Appended (except HTOA)

TOC of the extracted CD
Track | Start | Length | Start sector | End sector
––––––––––––––––––––––––––––-
1 | 00:00:00 | 03:11:05 | 0 | 14329
2 | 03:11:05 | 02:55:05 | 14330 | 27459
3 | 06:06:10 | 02:54:25 | 27460 | 40534
4 | 09:00:35 | 02:54:22 | 40535 | 53606
5 | 11:54:57 | 03:27:20 | 53607 | 69151
6 | 15:22:02 | 02:32:45 | 69152 | 80596
7 | 17:54:47 | 03:10:08 | 80597 | 94854
8 | 21:04:55 | 03:30:00 | 94855 | 110604
9 | 24:34:55 | 02:47:35 | 110605 | 123164
10 | 27:22:15 | 03:21:42 | 123165 | 138281
11 | 30:43:57 | 03:06:10 | 138282 | 152241
12 | 33:49:67 | 03:05:58 | 152242 | 166174
13 | 36:55:50 | 02:52:05 | 166175 | 179079
14 | 39:47:55 | 03:08:22 | 179080 | 193201
15 | 42:56:02 | 03:03:63 | 193202 | 206989
16 | 45:59:65 | 02:34:42 | 206990 | 218581
17 | 48:34:32 | 02:47:18 | 218582 | 231124
18 | 51:21:50 | 02:43:60 | 231125 | 243409
19 | 54:05:35 | 03:10:05 | 243410 | 257664
20 | 57:15:40 | 02:59:72 | 257665 | 271161
21 | 60:15:37 | 03:01:05 | 271162 | 284741
22 | 63:16:42 | 03:21:43 | 284742 | 299859

List of alternate offset correction values
# | Absolute | Relative | Confidence
–––––––––––––––––––––
1 | -632 | -735 | 2

AccurateRip Summary (DiscID: 0034bf37-034aea25-540f9e16)
Track 01 : OK (v1+v2, confidence 10/12)
Track 02 : OK (v1+v2, confidence 10/12)
Track 03 : OK (v1+v2, confidence 10/12)
Track 04 : OK (v1+v2, confidence 10/12)
Track 05 : OK (v1+v2, confidence 10/12)
Track 06 : OK (v1+v2, confidence 10/12)
Track 07 : OK (v1+v2, confidence 10/12)
Track 08 : OK (v1+v2, confidence 10/12)
Track 09 : OK (v1+v2, confidence 10/12)
Track 10 : OK (v1+v2, confidence 10/12)
Track 11 : OK (v1+v2, confidence 10/12)
Track 12 : OK (v1+v2, confidence 10/12)
Track 13 : OK (v1+v2, confidence 10/12)
Track 14 : OK (v1+v2, confidence 10/12)
Track 15 : OK (v1+v2, confidence 10/12)
Track 16 : OK (v1+v2, confidence 10/12)
Track 17 : OK (v1+v2, confidence 10/12)
Track 18 : OK (v1+v2, confidence 10/12)
Track 19 : OK (v1+v2, confidence 10/12)
Track 20 : OK (v1+v2, confidence 10/12)
Track 21 : OK (v1+v2, confidence 9/11)
Track 22 : OK (v1+v2, confidence 10/12)
->All tracks accurately ripped.

All Tracks
Album gain : -4.71 dB
Peak : 0.969025
Statistics
Read error : 0
Jitter error (maybe fixed) : 0
Retry sector count : 0
Damaged sector count : 0

Track 01
Filename : /Volumes/OWC Mercury Elite Pro - #2/Needs something/ Music/Duke Ellington - Early Ellington The Complete Brunswick and Vocalion Recordings 1926-1931 () [FLAC] {Decca Jazz GRD-3-640}/CD2/01 - Doin' the Voom Voom.flac
Pre-gap length : 00:02:00

Track gain : -4.37 dB
Peak : 0.711334
CRC32 hash (test run) : 00E760F0
CRC32 hash : 00E760F0
CRC32 hash (skip zero) : C19AE857
AccurateRip v1 signature : 9E526AF4
AccurateRip v2 signature : 94F73B98
->Accurately ripped (v1+v2, confidence 5+5/12)
Statistics
Read error : 0
Jitter error (maybe fixed) : 0
Retry sector count : 0
Damaged sector count : 0

Track 02
Filename : /Volumes/OWC Mercury Elite Pro - #2/Needs something/ Music/Duke Ellington - Early Ellington The Complete Brunswick and Vocalion Recordings 1926-1931 () [FLAC] {Decca Jazz GRD-3-640}/CD2/02 - Tiger Rag - Part I (Take A).flac
Pre-gap length : 00:02:55

Track gain : -8.21 dB
Peak : 0.801971
CRC32 hash (test run) : 7B61AD5E
CRC32 hash : 7B61AD5E
CRC32 hash (skip zero) : 31C1ED33
AccurateRip v1 signature : 8B441373
AccurateRip v2 signature : A9A7BB08
->Accurately ripped (v1+v2, confidence 5+5/12)
Statistics
Read error : 0
Jitter error (maybe fixed) : 0
Retry sector count : 0
Damaged sector count : 0

Track 03
Filename : /Volumes/OWC Mercury Elite Pro - #2/Needs something/ Music/Duke Ellington - Early Ellington The Complete Brunswick and Vocalion Recordings 1926-1931 () [FLAC] {Decca Jazz GRD-3-640}/CD2/03 - Tiger Rag - Part I (Take B).flac
Pre-gap length : 00:02:55

Track gain : -5.73 dB
Peak : 0.969025
CRC32 hash (test run) : 38DECA1A
CRC32 hash : 38DECA1A
CRC32 hash (skip zero) : B07460F0
AccurateRip v1 signature : 657FDC71
AccurateRip v2 signature : 150C67AD
->Accurately ripped (v1+v2, confidence 5+5/12)
Statistics
Read error : 0
Jitter error (maybe fixed) : 0
Retry sector count : 0
Damaged sector count : 0

Track 04
Filename : /Volumes/OWC Mercury Elite Pro - #2/Needs something/ Music/Duke Ellington - Early Ellington The Complete Brunswick and Vocalion Recordings 1926-1931 () [FLAC] {Decca Jazz GRD-3-640}/CD2/04 - Tiger Rag - Part II.flac
Pre-gap length : 00:02:53

Track gain : -5.30 dB
Peak : 0.615936
CRC32 hash (test run) : 7F863659
CRC32 hash : 7F863659
CRC32 hash (skip zero) : 679A213C
AccurateRip v1 signature : 08D651A9
AccurateRip v2 signature : 4AC49CE8
->Accurately ripped (v1+v2, confidence 5+5/12)
Statistics
Read error : 0
Jitter error (maybe fixed) : 0
Retry sector count : 0
Damaged sector count : 0

Track 05
Filename : /Volumes/OWC Mercury Elite Pro - #2/Needs something/ Music/Duke Ellington - Early Ellington The Complete Brunswick and Vocalion Recordings 1926-1931 () [FLAC] {Decca Jazz GRD-3-640}/CD2/05 - Rent Party Blues.flac
Pre-gap length : 00:02:52

Track gain : -4.34 dB
Peak : 0.671783
CRC32 hash (test run) : CA7AD00B
CRC32 hash : CA7AD00B
CRC32 hash (skip zero) : 572C3FE1
AccurateRip v1 signature : A7D67874
AccurateRip v2 signature : AC82E1F6
->Accurately ripped (v1+v2, confidence 5+5/12)
Statistics
Read error : 0
Jitter error (maybe fixed) : 0
Retry sector count : 0
Damaged sector count : 0

Track 06
Filename : /Volumes/OWC Mercury Elite Pro - #2/Needs something/ Music/Duke Ellington - Early Ellington The Complete Brunswick and Vocalion Recordings 1926-1931 () [FLAC] {Decca Jazz GRD-3-640}/CD2/06 - Paducah.flac
Pre-gap length : 00:02:55

Track gain : -4.53 dB
Peak : 0.632477
CRC32 hash (test run) : 58DD391F
CRC32 hash : 58DD391F
CRC32 hash (skip zero) : 3A9D370C
AccurateRip v1 signature : 89F66DDA
AccurateRip v2 signature : C66B6BB7
->Accurately ripped (v1+v2, confidence 5+5/12)
Statistics
Read error : 0
Jitter error (maybe fixed) : 0
Retry sector count : 0
Damaged sector count : 0

Track 07
Filename : /Volumes/OWC Mercury Elite Pro - #2/Needs something/ Music/Duke Ellington - Early Ellington The Complete Brunswick and Vocalion Recordings 1926-1931 () [FLAC] {Decca Jazz GRD-3-640}/CD2/07 - Harlem Flat Blues.flac
Pre-gap length : 00:02:55

Track gain : -4.98 dB
Peak : 0.758728
CRC32 hash (test run) : 05EE9BFC
CRC32 hash : 05EE9BFC
CRC32 hash (skip zero) : 69331037
AccurateRip v1 signature : 18D00950
AccurateRip v2 signature : F129F2CF
->Accurately ripped (v1+v2, confidence 5+5/12)
Statistics
Read error : 0
Jitter error (maybe fixed) : 0
Retry sector count : 0
Damaged sector count : 0

Track 08
Filename : /Volumes/OWC Mercury Elite Pro - #2/Needs something/ Music/Duke Ellington - Early Ellington The Complete Brunswick and Vocalion Recordings 1926-1931 () [FLAC] {Decca Jazz GRD-3-640}/CD2/08 - (What Did I Do To Be So) Black and Blue.flac
Pre-gap length : 00:02:58

Track gain : -2.97 dB
Peak : 0.775574
CRC32 hash (test run) : 686D962C
CRC32 hash : 686D962C
CRC32 hash (skip zero) : 44E2B44C
AccurateRip v1 signature : FE251227
AccurateRip v2 signature : 3C6C8001
->Accurately ripped (v1+v2, confidence 5+5/12)
Statistics
Read error : 0
Jitter error (maybe fixed) : 0
Retry sector count : 0
Damaged sector count : 0

Track 09
Filename : /Volumes/OWC Mercury Elite Pro - #2/Needs something/ Music/Duke Ellington - Early Ellington The Complete Brunswick and Vocalion Recordings 1926-1931 () [FLAC] {Decca Jazz GRD-3-640}/CD2/09 - Jungle Jamboree.flac
Pre-gap length : 00:02:53

Track gain : -4.57 dB
Peak : 0.726929
CRC32 hash (test run) : 9161F600
CRC32 hash : 9161F600
CRC32 hash (skip zero) : 13CA4DB6
AccurateRip v1 signature : 8576B2F3
AccurateRip v2 signature : 81B81B51
->Accurately ripped (v1+v2, confidence 5+5/12)
Statistics
Read error : 0
Jitter error (maybe fixed) : 0
Retry sector count : 0
Damaged sector count : 0

Track 10
Filename : /Volumes/OWC Mercury Elite Pro - #2/Needs something/ Music/Duke Ellington - Early Ellington The Complete Brunswick and Vocalion Recordings 1926-1931 () [FLAC] {Decca Jazz GRD-3-640}/CD2/10 - Ain't Misbehavin'.flac
Pre-gap length : 00:02:55

Track gain : -1.73 dB
Peak : 0.943268
CRC32 hash (test run) : FBE71CD9
CRC32 hash : FBE71CD9
CRC32 hash (skip zero) : BB8CA830
AccurateRip v1 signature : 1D664AAC
AccurateRip v2 signature : BC27DCE2
->Accurately ripped (v1+v2, confidence 5+5/12)
Statistics
Read error : 0
Jitter error (maybe fixed) : 0
Retry sector count : 0
Damaged sector count : 0

Track 11
Filename : /Volumes/OWC Mercury Elite Pro - #2/Needs something/ Music/Duke Ellington - Early Ellington The Complete Brunswick and Vocalion Recordings 1926-1931 () [FLAC] {Decca Jazz GRD-3-640}/CD2/11 - Doin' the New Low Down.flac
Pre-gap length : 00:02:52

Track gain : -0.83 dB
Peak : 0.755707
CRC32 hash (test run) : 71F03100
CRC32 hash : 71F03100
CRC32 hash (skip zero) : 0336A262
AccurateRip v1 signature : F772BE5A
AccurateRip v2 signature : 7384D9E1
->Accurately ripped (v1+v2, confidence 5+5/12)
Statistics
Read error : 0
Jitter error (maybe fixed) : 0
Retry sector count : 0
Damaged sector count : 0

Track 12
Filename : /Volumes/OWC Mercury Elite Pro - #2/Needs something/ Music/Duke Ellington - Early Ellington The Complete Brunswick and Vocalion Recordings 1926-1931 () [FLAC] {Decca Jazz GRD-3-640}/CD2/12 - Jolly Wog.flac
Pre-gap length : 00:02:55

Track gain : -5.38 dB
Peak : 0.935089
CRC32 hash (test run) : 373DD2DD
CRC32 hash : 373DD2DD
CRC32 hash (skip zero) : FD2A72DE
AccurateRip v1 signature : BFEA940B
AccurateRip v2 signature : B37629A7
->Accurately ripped (v1+v2, confidence 5+5/12)
Statistics
Read error : 0
Jitter error (maybe fixed) : 0
Retry sector count : 0
Damaged sector count : 0

Track 13
Filename : /Volumes/OWC Mercury Elite Pro - #2/Needs something/ Music/Duke Ellington - Early Ellington The Complete Brunswick and Vocalion Recordings 1926-1931 () [FLAC] {Decca Jazz GRD-3-640}/CD2/13 - Jazz Convulsions.flac
Pre-gap length : 00:02:53

Track gain : -4.35 dB
Peak : 0.794006
CRC32 hash (test run) : ABAC4A5D
CRC32 hash : ABAC4A5D
CRC32 hash (skip zero) : C3689BEC
AccurateRip v1 signature : AC91C15A
AccurateRip v2 signature : 16EF2BC4
->Accurately ripped (v1+v2, confidence 5+5/12)
Statistics
Read error : 0
Jitter error (maybe fixed) : 0
Retry sector count : 0
Damaged sector count : 0

Track 14
Filename : /Volumes/OWC Mercury Elite Pro - #2/Needs something/ Music/Duke Ellington - Early Ellington The Complete Brunswick and Vocalion Recordings 1926-1931 () [FLAC] {Decca Jazz GRD-3-640}/CD2/14 - Six or Seven Times (Take A).flac
Pre-gap length : 00:02:55

Track gain : 0.08 dB
Peak : 0.496094
CRC32 hash (test run) : 1614E037
CRC32 hash : 1614E037
CRC32 hash (skip zero) : 3EB97FC1
AccurateRip v1 signature : 9764B449
AccurateRip v2 signature : F8CE9266
->Accurately ripped (v1+v2, confidence 5+5/12)
Statistics
Read error : 0
Jitter error (maybe fixed) : 0
Retry sector count : 0
Damaged sector count : 0

Track 15
Filename : /Volumes/OWC Mercury Elite Pro - #2/Needs something/ Music/Duke Ellington - Early Ellington The Complete Brunswick and Vocalion Recordings 1926-1931 () [FLAC] {Decca Jazz GRD-3-640}/CD2/15 - Six or Seven Times (Take B).flac
Pre-gap length : 00:02:55

Track gain : -2.71 dB
Peak : 0.717926
CRC32 hash (test run) : 1036F5D9
CRC32 hash : 1036F5D9
CRC32 hash (skip zero) : 87D75BFC
AccurateRip v1 signature : 4DD59BE4
AccurateRip v2 signature : 8D320871
->Accurately ripped (v1+v2, confidence 5+5/12)
Statistics
Read error : 0
Jitter error (maybe fixed) : 0
Retry sector count : 0
Damaged sector count : 0

Track 16
Filename : /Volumes/OWC Mercury Elite Pro - #2/Needs something/ Music/Duke Ellington - Early Ellington The Complete Brunswick and Vocalion Recordings 1926-1931 () [FLAC] {Decca Jazz GRD-3-640}/CD2/16 - Goin' Nuts.flac
Pre-gap length : 00:02:55

Track gain : -5.76 dB
Peak : 0.654358
CRC32 hash (test run) : 3A17AB3A
CRC32 hash : 3A17AB3A
CRC32 hash (skip zero) : 52EC6DAA
AccurateRip v1 signature : 065D7EBD
AccurateRip v2 signature : 79C492BB
->Accurately ripped (v1+v2, confidence 5+5/12)
Statistics
Read error : 0
Jitter error (maybe fixed) : 0
Retry sector count : 0
Damaged sector count : 0

Track 17
Filename : /Volumes/OWC Mercury Elite Pro - #2/Needs something/ Music/Duke Ellington - Early Ellington The Complete Brunswick and Vocalion Recordings 1926-1931 () [FLAC] {Decca Jazz GRD-3-640}/CD2/17 - Oklahoma Stomp (Take A).flac
Pre-gap length : 00:02:42

Track gain : -4.61 dB
Peak : 0.810089
CRC32 hash (test run) : 5EF44ACA
CRC32 hash : 5EF44ACA
CRC32 hash (skip zero) : 251F83C2
AccurateRip v1 signature : 88A6ECF0
AccurateRip v2 signature : E7A398A7
->Accurately ripped (v1+v2, confidence 5+5/12)
Statistics
Read error : 0
Jitter error (maybe fixed) : 0
Retry sector count : 0
Damaged sector count : 0

Track 18
Filename : /Volumes/OWC Mercury Elite Pro - #2/Needs something/ Music/Duke Ellington - Early Ellington The Complete Brunswick and Vocalion Recordings 1926-1931 () [FLAC] {Decca Jazz GRD-3-640}/CD2/18 - Oklahoma Stomp (Take B).flac
Pre-gap length : 00:02:53

Track gain : -2.23 dB
Peak : 0.706940
CRC32 hash (test run) : 8B862575
CRC32 hash : 8B862575
CRC32 hash (skip zero) : B455AAE1
AccurateRip v1 signature : E22F0F43
AccurateRip v2 signature : 9FF78035
->Accurately ripped (v1+v2, confidence 5+5/12)
Statistics
Read error : 0
Jitter error (maybe fixed) : 0
Retry sector count : 0
Damaged sector count : 0

Track 19
Filename : /Volumes/OWC Mercury Elite Pro - #2/Needs something/ Music/Duke Ellington - Early Ellington The Complete Brunswick and Vocalion Recordings 1926-1931 () [FLAC] {Decca Jazz GRD-3-640}/CD2/19 - Sweet Mama.flac
Pre-gap length : 00:02:53

Track gain : -3.18 dB
Peak : 0.696381
CRC32 hash (test run) : B4B4135B
CRC32 hash : B4B4135B
CRC32 hash (skip zero) : 1D50A866
AccurateRip v1 signature : 87D390A3
AccurateRip v2 signature : 71F87121
->Accurately ripped (v1+v2, confidence 5+5/12)
Statistics
Read error : 0
Jitter error (maybe fixed) : 0
Retry sector count : 0
Damaged sector count : 0

Track 20
Filename : /Volumes/OWC Mercury Elite Pro - #2/Needs something/ Music/Duke Ellington - Early Ellington The Complete Brunswick and Vocalion Recordings 1926-1931 () [FLAC] {Decca Jazz GRD-3-640}/CD2/20 - Wall Street Wail (Take A).flac
Pre-gap length : 00:02:55

Track gain : -2.64 dB
Peak : 0.693298
CRC32 hash (test run) : B94F51F5
CRC32 hash : B94F51F5
CRC32 hash (skip zero) : 5713CE0B
AccurateRip v1 signature : B9BC9379
AccurateRip v2 signature : A5F11A86
->Accurately ripped (v1+v2, confidence 5+5/12)
Statistics
Read error : 0
Jitter error (maybe fixed) : 0
Retry sector count : 0
Damaged sector count : 0

Track 21
Filename : /Volumes/OWC Mercury Elite Pro - #2/Needs something/ Music/Duke Ellington - Early Ellington The Complete Brunswick and Vocalion Recordings 1926-1931 () [FLAC] {Decca Jazz GRD-3-640}/CD2/21 - Wall Street Wail (Take B).flac
Pre-gap length : 00:02:55

Track gain : -3.94 dB
Peak : 0.795044
CRC32 hash (test run) : 6C78A17E
CRC32 hash : 6C78A17E
CRC32 hash (skip zero) : 41F552FF
AccurateRip v1 signature : FBBEB3D2
AccurateRip v2 signature : 597464F3
->Accurately ripped (v1+v2, confidence 4+5/11)
Statistics
Read error : 0
Jitter error (maybe fixed) : 0
Retry sector count : 0
Damaged sector count : 0

Track 22
Filename : /Volumes/OWC Mercury Elite Pro - #2/Needs something/ Music/Duke Ellington - Early Ellington The Complete Brunswick and Vocalion Recordings 1926-1931 () [FLAC] {Decca Jazz GRD-3-640}/CD2/22 - Cinncinnati Daddy.flac
Pre-gap length : 00:02:55

Track gain : -3.96 dB
Peak : 0.773560
CRC32 hash (test run) : 453F1AFB
CRC32 hash : 453F1AFB
CRC32 hash (skip zero) : 057B6230
AccurateRip v1 signature : 70D7E1C3
AccurateRip v2 signature : 1C595311
->Accurately ripped (v1+v2, confidence 5+5/12)
Statistics
Read error : 0
Jitter error (maybe fixed) : 0
Retry sector count : 0
Damaged sector count : 0

No errors occurred

End of status report

––-BEGIN XLD SIGNATURE––-
m1TUh7DHyF3jMoM.joWNrUMsKdGW368gg91T57aFaLTsSEyE.DKN9RyJb5Mwadrw8q.UASezyy6GBbMpYlNxedHSu3q2hHS.sIRYBJ8
––-END XLD SIGNATURE––-

X Lossless Decoder version 20130407 (143.0)

XLD extraction logfile from 2014-10-01 11:36:31 -0700

Duke Ellington / Early Ellington, Disc Three - 1930-31

Used drive : HL-DT-ST DVDRW GA32N (revision KE06)
Media type : Pressed CD

Ripper mode : XLD Secure Ripper
Disable audio cache : OK for the drive with a cache less than 1375KiB
Make use of C2 pointers : NO
Read offset correction : 103
Max retry count : 100
Gap status : Analyzed, Appended (except HTOA)

TOC of the extracted CD
Track | Start | Length | Start sector | End sector
––––––––––––––––––––––––––––-
1 | 00:00:00 | 03:10:65 | 0 | 14314
2 | 03:10:65 | 03:06:50 | 14315 | 28314
3 | 06:17:40 | 03:06:02 | 28315 | 42266
4 | 09:23:42 | 03:01:20 | 42267 | 55861
5 | 12:24:62 | 03:06:18 | 55862 | 69829
6 | 15:31:05 | 03:10:62 | 69830 | 84141
7 | 18:41:67 | 02:53:70 | 84142 | 97186
8 | 21:35:62 | 02:59:50 | 97187 | 110661
9 | 24:35:37 | 03:00:35 | 110662 | 124196
10 | 27:35:72 | 02:53:50 | 124197 | 137221
11 | 30:29:47 | 02:56:15 | 137222 | 150436
12 | 33:25:62 | 02:45:55 | 150437 | 162866
13 | 36:11:42 | 02:58:48 | 162867 | 176264
14 | 39:10:15 | 03:00:27 | 176265 | 189791
15 | 42:10:42 | 03:02:43 | 189792 | 203484
16 | 45:13:10 | 03:10:25 | 203485 | 217759
17 | 48:23:35 | 03:02:20 | 217760 | 231429
18 | 51:25:55 | 03:00:42 | 231430 | 244971
19 | 54:26:22 | 03:19:38 | 244972 | 259934
20 | 57:45:60 | 03:10:20 | 259935 | 274204
21 | 60:56:05 | 03:21:02 | 274205 | 289281
22 | 64:17:07 | 02:55:43 | 289282 | 302449
23 | 67:12:50 | 02:20:67 | 302450 | 313016

List of alternate offset correction values
# | Absolute | Relative | Confidence
–––––––––––––––––––––
1 | -632 | -735 | 2

AccurateRip Summary (DiscID: 0039ad38-03bfc62a-5f104d17)
Track 01 : OK (v1+v2, confidence 10/12)
Track 02 : OK (v1+v2, confidence 10/12)
Track 03 : OK (v1+v2, confidence 10/12)
Track 04 : OK (v1+v2, confidence 10/12)
Track 05 : OK (v1+v2, confidence 10/12)
Track 06 : OK (v1+v2, confidence 10/12)
Track 07 : OK (v1+v2, confidence 10/12)
Track 08 : OK (v1+v2, confidence 10/12)
Track 09 : OK (v1+v2, confidence 10/12)
Track 10 : OK (v1+v2, confidence 10/12)
Track 11 : OK (v1+v2, confidence 10/12)
Track 12 : OK (v1+v2, confidence 10/12)
Track 13 : OK (v1+v2, confidence 10/12)
Track 14 : OK (v1+v2, confidence 10/12)
Track 15 : OK (v1+v2, confidence 10/12)
Track 16 : OK (v1+v2, confidence 10/12)
Track 17 : OK (v1+v2, confidence 10/12)
Track 18 : OK (v1+v2, confidence 10/12)
Track 19 : OK (v1+v2, confidence 10/12)
Track 20 : OK (v1+v2, confidence 10/12)
Track 21 : OK (v1+v2, confidence 10/12)
Track 22 : OK (v1+v2, confidence 10/12)
Track 23 : OK (v1+v2, confidence 9/11)
->All tracks accurately ripped.

All Tracks
Album gain : -6.30 dB
Peak : 0.999969
Statistics
Read error : 0
Jitter error (maybe fixed) : 0
Retry sector count : 0
Damaged sector count : 0

Track 01
Filename : /Volumes/OWC Mercury Elite Pro - #2/Needs something/ Music/Duke Ellington - Early Ellington The Complete Brunswick and Vocalion Recordings 1926-1931 () [FLAC] {Decca Jazz GRD-3-640}/CD3/01 - Maori (A Samoan Dance) [1st version].flac
Pre-gap length : 00:02:00

Track gain : -5.97 dB
Peak : 0.902283
CRC32 hash (test run) : 7AFE10C4
CRC32 hash : 7AFE10C4
CRC32 hash (skip zero) : 97C9C706
AccurateRip v1 signature : F2A98613
AccurateRip v2 signature : A5EB6627
->Accurately ripped (v1+v2, confidence 5+5/12)
Statistics
Read error : 0
Jitter error (maybe fixed) : 0
Retry sector count : 0
Damaged sector count : 0

Track 02
Filename : /Volumes/OWC Mercury Elite Pro - #2/Needs something/ Music/Duke Ellington - Early Ellington The Complete Brunswick and Vocalion Recordings 1926-1931 () [FLAC] {Decca Jazz GRD-3-640}/CD3/02 - When You're Smiling (The Whole World Smiles with You) [Take A].flac
Pre-gap length : 00:02:48

Track gain : -7.33 dB
Peak : 0.810364
CRC32 hash (test run) : 9213D2EB
CRC32 hash : 9213D2EB
CRC32 hash (skip zero) : 212F24DD
AccurateRip v1 signature : 135B117F
AccurateRip v2 signature : 73649691
->Accurately ripped (v1+v2, confidence 5+5/12)
Statistics
Read error : 0
Jitter error (maybe fixed) : 0
Retry sector count : 0
Damaged sector count : 0

Track 03
Filename : /Volumes/OWC Mercury Elite Pro - #2/Needs something/ Music/Duke Ellington - Early Ellington The Complete Brunswick and Vocalion Recordings 1926-1931 () [FLAC] {Decca Jazz GRD-3-640}/CD3/03 - When You're Smiling (The Whole World Smiles with You) [Take B].flac
Pre-gap length : 00:02:45

Track gain : -7.41 dB
Peak : 0.839142
CRC32 hash (test run) : CAC7E7DB
CRC32 hash : CAC7E7DB
CRC32 hash (skip zero) : 0EB5C350
AccurateRip v1 signature : 6DD1E224
AccurateRip v2 signature : 20E17B6B
->Accurately ripped (v1+v2, confidence 5+5/12)
Statistics
Read error : 0
Jitter error (maybe fixed) : 0
Retry sector count : 0
Damaged sector count : 0

Track 04
Filename : /Volumes/OWC Mercury Elite Pro - #2/Needs something/ Music/Duke Ellington - Early Ellington The Complete Brunswick and Vocalion Recordings 1926-1931 () [FLAC] {Decca Jazz GRD-3-640}/CD3/04 - Maori (A Samoan Dance) [2nd version - Take A].flac
Pre-gap length : 00:02:45

Track gain : -6.34 dB
Peak : 0.790802
CRC32 hash (test run) : 5C42AA24
CRC32 hash : 5C42AA24
CRC32 hash (skip zero) : 5E6B8D37
AccurateRip v1 signature : 6AAE6D59
AccurateRip v2 signature : 1DBD261A
->Accurately ripped (v1+v2, confidence 5+5/12)
Statistics
Read error : 0
Jitter error (maybe fixed) : 0
Retry sector count : 0
Damaged sector count : 0

Track 05
Filename : /Volumes/OWC Mercury Elite Pro - #2/Needs something/ Music/Duke Ellington - Early Ellington The Complete Brunswick and Vocalion Recordings 1926-1931 () [FLAC] {Decca Jazz GRD-3-640}/CD3/05 - Maori (A Samoan Dance) [2nd version - Take B].flac
Pre-gap length : 00:02:50

Track gain : -6.81 dB
Peak : 0.773834
CRC32 hash (test run) : FA3A32F0
CRC32 hash : FA3A32F0
CRC32 hash (skip zero) : 5FF47F9C
AccurateRip v1 signature : 7CF45D75
AccurateRip v2 signature : C8121A5B
->Accurately ripped (v1+v2, confidence 5+5/12)
Statistics
Read error : 0
Jitter error (maybe fixed) : 0
Retry sector count : 0
Damaged sector count : 0

Track 06
Filename : /Volumes/OWC Mercury Elite Pro - #2/Needs something/ Music/Duke Ellington - Early Ellington The Complete Brunswick and Vocalion Recordings 1926-1931 () [FLAC] {Decca Jazz GRD-3-640}/CD3/06 - Admiration.flac
Pre-gap length : 00:02:50

Track gain : -4.69 dB
Peak : 0.727692
CRC32 hash (test run) : E4889F86
CRC32 hash : E4889F86
CRC32 hash (skip zero) : 0BC7EE4D
AccurateRip v1 signature : F4AB49D2
AccurateRip v2 signature : 1D20D5E2
->Accurately ripped (v1+v2, confidence 5+5/12)
Statistics
Read error : 0
Jitter error (maybe fixed) : 0
Retry sector count : 0
Damaged sector count : 0

Track 07
Filename : /Volumes/OWC Mercury Elite Pro - #2/Needs something/ Music/Duke Ellington - Early Ellington The Complete Brunswick and Vocalion Recordings 1926-1931 () [FLAC] {Decca Jazz GRD-3-640}/CD3/07 - Double Check Stomp.flac
Pre-gap length : 00:02:47

Track gain : -6.87 dB
Peak : 0.730499
CRC32 hash (test run) : E65C525D
CRC32 hash : E65C525D
CRC32 hash (skip zero) : 18DD86D1
AccurateRip v1 signature : C8C7C9AA
AccurateRip v2 signature : C8B93BD5
->Accurately ripped (v1+v2, confidence 5+5/12)
Statistics
Read error : 0
Jitter error (maybe fixed) : 0
Retry sector count : 0
Damaged sector count : 0

Track 08
Filename : /Volumes/OWC Mercury Elite Pro - #2/Needs something/ Music/Duke Ellington - Early Ellington The Complete Brunswick and Vocalion Recordings 1926-1931 () [FLAC] {Decca Jazz GRD-3-640}/CD3/08 - Accordian Joe [Take A].flac
Pre-gap length : 00:02:47

Track gain : -5.63 dB
Peak : 0.799835
CRC32 hash (test run) : 4CAD147C
CRC32 hash : 4CAD147C
CRC32 hash (skip zero) : 6B5FFA68
AccurateRip v1 signature : ECFB637F
AccurateRip v2 signature : 7475F8D0
->Accurately ripped (v1+v2, confidence 5+5/12)
Statistics
Read error : 0
Jitter error (maybe fixed) : 0
Retry sector count : 0
Damaged sector count : 0

Track 09
Filename : /Volumes/OWC Mercury Elite Pro - #2/Needs something/ Music/Duke Ellington - Early Ellington The Complete Brunswick and Vocalion Recordings 1926-1931 () [FLAC] {Decca Jazz GRD-3-640}/CD3/09 - Accordian Joe [Take B].flac
Pre-gap length : 00:02:45

Track gain : -6.14 dB
Peak : 0.871277
CRC32 hash (test run) : 0AFA1E10
CRC32 hash : 0AFA1E10
CRC32 hash (skip zero) : BF5883A3
AccurateRip v1 signature : E0E6E665
AccurateRip v2 signature : A81AF13F
->Accurately ripped (v1+v2, confidence 5+5/12)
Statistics
Read error : 0
Jitter error (maybe fixed) : 0
Retry sector count : 0
Damaged sector count : 0

Track 10
Filename : /Volumes/OWC Mercury Elite Pro - #2/Needs something/ Music/Duke Ellington - Early Ellington The Complete Brunswick and Vocalion Recordings 1926-1931 () [FLAC] {Decca Jazz GRD-3-640}/CD3/10 - Cotton Club Stomp [Take A].flac
Pre-gap length : 00:02:47

Track gain : -5.54 dB
Peak : 0.696472
CRC32 hash (test run) : 1A7876D1
CRC32 hash : 1A7876D1
CRC32 hash (skip zero) : BDDAC300
AccurateRip v1 signature : DAB39624
AccurateRip v2 signature : AC4E2B51
->Accurately ripped (v1+v2, confidence 5+5/12)
Statistics
Read error : 0
Jitter error (maybe fixed) : 0
Retry sector count : 0
Damaged sector count : 0

Track 11
Filename : /Volumes/OWC Mercury Elite Pro - #2/Needs something/ Music/Duke Ellington - Early Ellington The Complete Brunswick and Vocalion Recordings 1926-1931 () [FLAC] {Decca Jazz GRD-3-640}/CD3/11 - Cotton Club Stomp [Take B].flac
Pre-gap length : 00:02:45

Track gain : -5.61 dB
Peak : 0.812500
CRC32 hash (test run) : 9D57E956
CRC32 hash : 9D57E956
CRC32 hash (skip zero) : 62CCD3A2
AccurateRip v1 signature : 952B7FCE
AccurateRip v2 signature : A8825202
->Accurately ripped (v1+v2, confidence 5+5/12)
Statistics
Read error : 0
Jitter error (maybe fixed) : 0
Retry sector count : 0
Damaged sector count : 0

Track 12
Filename : /Volumes/OWC Mercury Elite Pro - #2/Needs something/ Music/Duke Ellington - Early Ellington The Complete Brunswick and Vocalion Recordings 1926-1931 () [FLAC] {Decca Jazz GRD-3-640}/CD3/12 - Runnin' Wild!.flac
Pre-gap length : 00:02:45

Track gain : -5.76 dB
Peak : 0.766174
CRC32 hash (test run) : 528EE725
CRC32 hash : 528EE725
CRC32 hash (skip zero) : D00FC1A8
AccurateRip v1 signature : F4E3B95F
AccurateRip v2 signature : E1B32115
->Accurately ripped (v1+v2, confidence 5+5/12)
Statistics
Read error : 0
Jitter error (maybe fixed) : 0
Retry sector count : 0
Damaged sector count : 0

Track 13
Filename : /Volumes/OWC Mercury Elite Pro - #2/Needs something/ Music/Duke Ellington - Early Ellington The Complete Brunswick and Vocalion Recordings 1926-1931 () [FLAC] {Decca Jazz GRD-3-640}/CD3/13 - Mood Indigo.flac
Pre-gap length : 00:02:47

Track gain : -0.23 dB
Peak : 0.634033
CRC32 hash (test run) : 33DF0476
CRC32 hash : 33DF0476
CRC32 hash (skip zero) : 0F059ED8
AccurateRip v1 signature : 06A13662
AccurateRip v2 signature : 3BA82336
->Accurately ripped (v1+v2, confidence 5+5/12)
Statistics
Read error : 0
Jitter error (maybe fixed) : 0
Retry sector count : 0
Damaged sector count : 0

Track 14
Filename : /Volumes/OWC Mercury Elite Pro - #2/Needs something/ Music/Duke Ellington - Early Ellington The Complete Brunswick and Vocalion Recordings 1926-1931 () [FLAC] {Decca Jazz GRD-3-640}/CD3/14 - Home Again Blues.flac
Pre-gap length : 00:02:48

Track gain : -6.29 dB
Peak : 0.884247
CRC32 hash (test run) : AE534B2A
CRC32 hash : AE534B2A
CRC32 hash (skip zero) : AD590AFF
AccurateRip v1 signature : 7741B5C2
AccurateRip v2 signature : EF813950
->Accurately ripped (v1+v2, confidence 5+5/12)
Statistics
Read error : 0
Jitter error (maybe fixed) : 0
Retry sector count : 0
Damaged sector count : 0

Track 15
Filename : /Volumes/OWC Mercury Elite Pro - #2/Needs something/ Music/Duke Ellington - Early Ellington The Complete Brunswick and Vocalion Recordings 1926-1931 () [FLAC] {Decca Jazz GRD-3-640}/CD3/15 - Wang-Wang Blues.flac
Pre-gap length : 00:02:45

Track gain : -6.90 dB
Peak : 0.894897
CRC32 hash (test run) : EC49CF8B
CRC32 hash : EC49CF8B
CRC32 hash (skip zero) : 52F4A6FE
AccurateRip v1 signature : F3883651
AccurateRip v2 signature : C14A4A25
->Accurately ripped (v1+v2, confidence 5+5/12)
Statistics
Read error : 0
Jitter error (maybe fixed) : 0
Retry sector count : 0
Damaged sector count : 0

Track 16
Filename : /Volumes/OWC Mercury Elite Pro - #2/Needs something/ Music/Duke Ellington - Early Ellington The Complete Brunswick and Vocalion Recordings 1926-1931 () [FLAC] {Decca Jazz GRD-3-640}/CD3/16 - Rockin' Chair.flac
Pre-gap length : 00:02:48

Track gain : -5.32 dB
Peak : 0.871796
CRC32 hash (test run) : 1C8BFABB
CRC32 hash : 1C8BFABB
CRC32 hash (skip zero) : 85615998
AccurateRip v1 signature : 12C4FD42
AccurateRip v2 signature : 170B01D3
->Accurately ripped (v1+v2, confidence 5+5/12)
Statistics
Read error : 0
Jitter error (maybe fixed) : 0
Retry sector count : 0
Damaged sector count : 0

Track 17
Filename : /Volumes/OWC Mercury Elite Pro - #2/Needs something/ Music/Duke Ellington - Early Ellington The Complete Brunswick and Vocalion Recordings 1926-1931 () [FLAC] {Decca Jazz GRD-3-640}/CD3/17 - Rockin' in Rhythm.flac
Pre-gap length : 00:02:45

Track gain : -6.22 dB
Peak : 0.874634
CRC32 hash (test run) : 1EB329B1
CRC32 hash : 1EB329B1
CRC32 hash (skip zero) : 110AAC1B
AccurateRip v1 signature : 9571C099
AccurateRip v2 signature : B88AC6FE
->Accurately ripped (v1+v2, confidence 5+5/12)
Statistics
Read error : 0
Jitter error (maybe fixed) : 0
Retry sector count : 0
Damaged sector count : 0

Track 18
Filename : /Volumes/OWC Mercury Elite Pro - #2/Needs something/ Music/Duke Ellington - Early Ellington The Complete Brunswick and Vocalion Recordings 1926-1931 () [FLAC] {Decca Jazz GRD-3-640}/CD3/18 - Twelfth Street Rag.flac
Pre-gap length : 00:02:30

Track gain : -7.11 dB
Peak : 0.999969
CRC32 hash (test run) : 9CE63C3A
CRC32 hash : 9CE63C3A
CRC32 hash (skip zero) : 074A86FE
AccurateRip v1 signature : D951F8D3
AccurateRip v2 signature : 24F05A8D
->Accurately ripped (v1+v2, confidence 5+5/12)
Statistics
Read error : 0
Jitter error (maybe fixed) : 0
Retry sector count : 0
Damaged sector count : 0

Track 19
Filename : /Volumes/OWC Mercury Elite Pro - #2/Needs something/ Music/Duke Ellington - Early Ellington The Complete Brunswick and Vocalion Recordings 1926-1931 () [FLAC] {Decca Jazz GRD-3-640}/CD3/19 - The Peanut Vendor.flac
Pre-gap length : 00:02:50

Track gain : -6.47 dB
Peak : 0.793427
CRC32 hash (test run) : 799E01D8
CRC32 hash : 799E01D8
CRC32 hash (skip zero) : 361059AC
AccurateRip v1 signature : 74877262
AccurateRip v2 signature : 19C8EC65
->Accurately ripped (v1+v2, confidence 5+5/12)
Statistics
Read error : 0
Jitter error (maybe fixed) : 0
Retry sector count : 0
Damaged sector count : 0

Track 20
Filename : /Volumes/OWC Mercury Elite Pro - #2/Needs something/ Music/Duke Ellington - Early Ellington The Complete Brunswick and Vocalion Recordings 1926-1931 () [FLAC] {Decca Jazz GRD-3-640}/CD3/20 - Creole Rhapsody - Part I.flac
Pre-gap length : 00:02:48

Track gain : -4.44 dB
Peak : 0.688232
CRC32 hash (test run) : 14F4B8A7
CRC32 hash : 14F4B8A7
CRC32 hash (skip zero) : 5ACE7F0B
AccurateRip v1 signature : A949C459
AccurateRip v2 signature : CCE4C3A5
->Accurately ripped (v1+v2, confidence 5+5/12)
Statistics
Read error : 0
Jitter error (maybe fixed) : 0
Retry sector count : 0
Damaged sector count : 0

Track 21
Filename : /Volumes/OWC Mercury Elite Pro - #2/Needs something/ Music/Duke Ellington - Early Ellington The Complete Brunswick and Vocalion Recordings 1926-1931 () [FLAC] {Decca Jazz GRD-3-640}/CD3/21 - Creole Rhapsody - Part 2 [Take A].flac
Pre-gap length : 00:02:48

Track gain : -5.57 dB
Peak : 0.777954
CRC32 hash (test run) : 295D8505
CRC32 hash : 295D8505
CRC32 hash (skip zero) : 132BE6AF
AccurateRip v1 signature : 1666AD85
AccurateRip v2 signature : 02EE56C5
->Accurately ripped (v1+v2, confidence 5+5/12)
Statistics
Read error : 0
Jitter error (maybe fixed) : 0
Retry sector count : 0
Damaged sector count : 0

Track 22
Filename : /Volumes/OWC Mercury Elite Pro - #2/Needs something/ Music/Duke Ellington - Early Ellington The Complete Brunswick and Vocalion Recordings 1926-1931 () [FLAC] {Decca Jazz GRD-3-640}/CD3/22 - Creole Rhapsody - Part 2 [Take AA].flac
Pre-gap length : 00:02:47

Track gain : -3.71 dB
Peak : 0.659210
CRC32 hash (test run) : 40BB6E15
CRC32 hash : 40BB6E15
CRC32 hash (skip zero) : 4F497281
AccurateRip v1 signature : 44D57809
AccurateRip v2 signature : 5E0750A4
->Accurately ripped (v1+v2, confidence 5+5/12)
Statistics
Read error : 0
Jitter error (maybe fixed) : 0
Retry sector count : 0
Damaged sector count : 0

Track 23
Filename : /Volumes/OWC Mercury Elite Pro - #2/Needs something/ Music/Duke Ellington - Early Ellington The Complete Brunswick and Vocalion Recordings 1926-1931 () [FLAC] {Decca Jazz GRD-3-640}/CD3/23 - Is that Religion.flac
Pre-gap length : 00:02:50

Track gain : -7.63 dB
Peak : 0.806915
CRC32 hash (test run) : 69E25AC7
CRC32 hash : 69E25AC7
CRC32 hash (skip zero) : 48AFC1D6
AccurateRip v1 signature : A4BE3B50
AccurateRip v2 signature : 484A0249
->Accurately ripped (v1+v2, confidence 5+4/11)
Statistics
Read error : 0
Jitter error (maybe fixed) : 0
Retry sector count : 0
Damaged sector count : 0

No errors occurred

End of status report

––-BEGIN XLD SIGNATURE––-
sedkOHaiDCGezEzO264wXQZXE0G27oYP0meJKYu13ZTnLUYmvyV9yn00Q30.srmHgS2jeqAqI3NZIayDBTIUEV6zDQdMwUJkrdx53Aa
––-END XLD SIGNATURE––-


Duke Ellington - Early Ellington: The Complete Brunswick and Vocalion Recordings 1926-1931 (1994) [3CD Set] {Decca Jazz}



===