Tags
Language
Tags

Emerson, Lake & Palmer - The Original Bootleg Series from The Manticore Vaults Vol. 4 Set 1 (2006) {2CD Castle Music rec 1977}

Posted By: ruskaval
Emerson, Lake & Palmer - The Original Bootleg Series from The Manticore Vaults Vol. 4 Set 1 (2006) {2CD Castle Music rec 1977}

Emerson, Lake & Palmer - The Original Bootleg Series from The Manticore Vaults Vol. 4 Set 1 (2006) {2CD Castle Music rec 1977}
EAC rip (secure mode) | FLAC (tracks)+CUE+LOG -> 643 Mb | MP3 @320 -> 262 Mb
Full Artwork @ 600 dpi (jpg) -> 37 Mb | 5% repair rar
© 1977, 2006 Castle Music / Sanctuary Record | CMXBX1374 / 1~2
Rock / Art Rock / Progressive Rock

Set 1: Hartford Civic Centre, CT - July 10th, 1977. 2008 repressing of this deluxe eight CD box set, subtitled From The Manticore Vaults. Four epic concerts make up this suitably extravagant box set by the unchallenged kings of Pomp-Rock, whose majestic three-way instrumental interplay laid down the blueprint for the Progressive '70s. Features shows from Hartford Civic Center (1977), Chicago (1978), Pennsylvania and Jones Beach (both from 1992), 61 tracks.
Emerson, Lake & Palmer - The Original Bootleg Series from The Manticore Vaults Vol. 4 Set 1 (2006) {2CD Castle Music rec 1977}

Volume #4 seemed to have completely caught me by suprise. Out Of The blue[excuse the unintended pun]. I was indeed unprepared; Since I own volumes I-III; I had no choice but to buy this ELP set. Volume IV contrasts dodgy to somewhat good -great audio performances of ELP specifically comparing/contrasting the ELP years of 1977/1978/1992. It is a true sucessor to volumes I-III.

Like the KCCC, Grateful Dead, (retired to pasture Dick's Picks); The Doors' Ban The Boots And Frank Zappa's Beat The Boots Volumes I and Duex(reversed?); These performances are not par excellence. But really, that's not the point is it?

To recap thus far: Volumes I-III are notoriously consistent with the varigated ELP interpretations of "Tarkus," "Pictures At An Exhibition," and "Take A Pebble." Why can't Yes do something like this? Jon, Chris and Steve? Earth to Jon and Chris…? Are you there?

Volumes I-III are worth getting for ELP's interpretations of "Tarkus" and "Rondo." They are of a piece. If anything the variations on these two ELP songs are like the interpretations of the 'Islands' band of King Crimson of that said material and The Grateful Dead's Dick's Picks series of "Dark Star" and "Sugar Magnolia" Yes' The Word Is: Yes, 3 CD set is a good try. Great stuff. But? I know you guys are sitting on some good Yes performances. The Word Is: Yes is varigated, uneven, but still - very good to great. For the Yes fan. I'd buy it. I did, eventually. I'm glad I did.

Emerson, Lake & Palmer - The Original Bootleg Series from The Manticore Vaults Vol. 4 Set 1 (2006) {2CD Castle Music rec 1977}


The mere fact that the ELP camp released this crusty and whorey tidbit means to me that there is still life in ELP(of some unassumable phantasm?). This particular survey of juxtipostioned ELP performances minimizes "Rondo" to give preferent maximum exposure to the 1990s new stuff and "Pictures." Sure: "Pirates" still cooks through all 4 performances. It drips Emersonian/Lake bliss….

Volume IV Live From The Manticore Vaults is aesthetically on par with volumes I - III. Once again I refer you to Dick's Picks and The King Crimson Collectors Club. ELP has just a different way of releasing its "bootleg" stuff. Greg Lake's voice may be shot to hell; Keith Emerson may be contemplating recording with The Nice; Carl Palmer seems to be the 'active member' currently.

Ahhhhhhhhhh…. There was a time when ELP were where it was "at." Even the 1990s second coming still had rough hewn teeth. But hey you decide for your self. No really expressive "Rondo"'s on this set. But maybe they deliberately wanted to highlight "Pictures?"
Emerson, Lake & Palmer - The Original Bootleg Series from The Manticore Vaults Vol. 4 Set 1 (2006) {2CD Castle Music rec 1977}


Emerson Lake & Palmer - The Original Bootleg Series from The Manticore Vaults Volume 4 (2006)
Set 1: Hartford Civic Centre, CT - July 10th, 1977
Set 2: Chicago, IL - 1978
Set 3: Pennsylvania - July 22nd, 1992
Set 4: Jones Beach - July 25th, 1992


tracklist:
CD1

01 - Karn Evil 9 1st Impression Pt 2
02 - Hoedown
03 - Tarkus
04 - Take A Pebble (inc Piano Concerto No 1 1st Movement)
05 - Still You Turn Me On
06 - Knife Edge
07 - Pictures At An Exhibition

Emerson, Lake & Palmer - The Original Bootleg Series from The Manticore Vaults Vol. 4 Set 1 (2006) {2CD Castle Music rec 1977}


CD2
01 - C'est La Vie
02 - Lucky Man
03 - Tank
04 - Nutrocker
05 - Pirates
06 - Fanfare For The Common Man

Emerson, Lake & Palmer - The Original Bootleg Series from The Manticore Vaults Vol. 4 Set 1 (2006) {2CD Castle Music rec 1977}


Exact Audio Copy V0.99 prebeta 4 from 23. January 2008

EAC extraction logfile from 31. January 2011, 11:22

Emerson, Lake & Palmer / The Original Bootleg Series from The Manticore Vaults Vol Four (CD1)

Used drive : MATSHITADVD-RAM UJ-842S Adapter: 1 ID: 0

Read mode : Secure
Utilize accurate stream : Yes
Defeat audio cache : Yes
Make use of C2 pointers : No

Read offset correction : 102
Overread into Lead-In and Lead-Out : No
Fill up missing offset samples with silence : Yes
Delete leading and trailing silent blocks : No
Null samples used in CRC calculations : Yes
Used interface : Native Win32 interface for Win NT & 2000
Gap handling : Appended to previous track

Used output format : User Defined Encoder
Selected bitrate : 768 kBit/s
Quality : High
Add ID3 tag : No
Command line compressor : C:\Program Files\FLAC\flac.exe
Additional command line options : -8 -V -T "ARTIST=%a" -T "TITLE=%t" -T "ALBUM=%g" -T "DATE=%y" -T "TRACKNUMBER=%n" -T "TOTALTRACKS=%x" -T "GENRE=%m" -T "ALBUMARTIST=%v" -T "ALBUM ARTIST=%v" -T "COMMENT=EAC Secure Mode, Test & Copy, AccurateRip, FLAC -8" %s


TOC of the extracted CD

Track | Start | Length | Start sector | End sector
––––––––––––––––––––––––––––-
1 | 0:00.00 | 4:39.31 | 0 | 20955
2 | 4:39.31 | 4:11.39 | 20956 | 39819
3 | 8:50.70 | 16:24.26 | 39820 | 113645
4 | 25:15.21 | 10:53.45 | 113646 | 162665
5 | 36:08.66 | 4:11.61 | 162666 | 181551
6 | 40:20.52 | 5:22.47 | 181552 | 205748
7 | 45:43.24 | 15:54.02 | 205749 | 277300


Track 1

Filename C:\torrent\ELP 1\01 - Karn Evil 9 1st Impression Pt 2.wav

Pre-gap length 0:00:02.00

Peak level 94.6 %
Track quality 100.0 %
Test CRC 175D404F
Copy CRC 175D404F
Accurately ripped (confidence 3) [5239D267]
Copy OK

Track 2

Filename C:\torrent\ELP 1\02 - Hoedown.wav

Peak level 96.2 %
Track quality 100.0 %
Test CRC D0B4040E
Copy CRC D0B4040E
Accurately ripped (confidence 3) [3412E2B1]
Copy OK

Track 3

Filename C:\torrent\ELP 1\03 - Tarkus.wav

Peak level 91.5 %
Track quality 100.0 %
Test CRC DEF9EE72
Copy CRC DEF9EE72
Accurately ripped (confidence 3) [9226F51D]
Copy OK

Track 4

Filename C:\torrent\ELP 1\04 - Take A Pebble (inc Piano Concerto No 1 1st Movement).wav

Peak level 97.7 %
Track quality 100.0 %
Test CRC 68B699EA
Copy CRC 68B699EA
Accurately ripped (confidence 3) [2FF39CE5]
Copy OK

Track 5

Filename C:\torrent\ELP 1\05 - Still You Turn Me On.wav

Peak level 93.0 %
Track quality 100.0 %
Test CRC 00EAE0B6
Copy CRC 00EAE0B6
Accurately ripped (confidence 3) [C027C631]
Copy OK

Track 6

Filename C:\torrent\ELP 1\06 - Knife Edge.wav

Peak level 92.3 %
Track quality 100.0 %
Test CRC 20C650F3
Copy CRC 20C650F3
Accurately ripped (confidence 2) [75644EEC]
Copy OK

Track 7

Filename C:\torrent\ELP 1\07 - Pictures At An Exhibition.wav

Peak level 95.4 %
Track quality 99.9 %
Test CRC FCD073F1
Copy CRC FCD073F1
Accurately ripped (confidence 3) [A17D871D]
Copy OK


All tracks accurately ripped

No errors occurred

End of status report

Exact Audio Copy V0.99 prebeta 4 from 23. January 2008

EAC extraction logfile from 30. January 2011, 16:38

Emerson, Lake & Palmer / The Original Bootleg Series from The Manticore Vaults Vol Four (CD2)

Used drive : Optiarc DVD RW AD-7561S Adapter: 1 ID: 0

Read mode : Secure
Utilize accurate stream : Yes
Defeat audio cache : Yes
Make use of C2 pointers : No

Read offset correction : 6
Overread into Lead-In and Lead-Out : No
Fill up missing offset samples with silence : Yes
Delete leading and trailing silent blocks : No
Null samples used in CRC calculations : Yes
Used interface : Native Win32 interface for Win NT & 2000
Gap handling : Appended to previous track

Used output format : User Defined Encoder
Selected bitrate : 768 kBit/s
Quality : High
Add ID3 tag : No
Command line compressor : C:\Program Files\FLAC\flac.exe
Additional command line options : -8 -V -T "ARTIST=%a" -T "TITLE=%t" -T "ALBUM=%g" -T "DATE=%y" -T "TRACKNUMBER=%n" -T "GENRE=%m" -T "COMMENT=EAC FLAC -8" %s


TOC of the extracted CD

Track | Start | Length | Start sector | End sector
––––––––––––––––––––––––––––-
1 | 0:00.00 | 4:22.44 | 0 | 19693
2 | 4:22.44 | 2:19.29 | 19694 | 30147
3 | 6:41.73 | 9:58.11 | 30148 | 75008
4 | 16:40.09 | 3:34.73 | 75009 | 91131
5 | 20:15.07 | 13:13.26 | 91132 | 150632
6 | 33:28.33 | 15:03.31 | 150633 | 218388


Track 1

Filename C:\torrent\Emerson Lake & Palmer - The Original Bootleg Series from The Manticore Vaults Vol. 4 (2006) [FLAC] Box set\Set 1-Hartford Civic Centre\Disc 2\01 - C'est La Vie.wav

Pre-gap length 0:00:02.00

Peak level 97.7 %
Track quality 100.0 %
Test CRC 8429C586
Copy CRC 8429C586
Accurately ripped (confidence 3) [F6C4C50B]
Copy OK

Track 2

Filename C:\torrent\Emerson Lake & Palmer - The Original Bootleg Series from The Manticore Vaults Vol. 4 (2006) [FLAC] Box set\Set 1-Hartford Civic Centre\Disc 2\02 - Lucky Man.wav

Peak level 95.8 %
Track quality 100.0 %
Test CRC 0EF454B4
Copy CRC 0EF454B4
Accurately ripped (confidence 3) [031BFA04]
Copy OK

Track 3

Filename C:\torrent\Emerson Lake & Palmer - The Original Bootleg Series from The Manticore Vaults Vol. 4 (2006) [FLAC] Box set\Set 1-Hartford Civic Centre\Disc 2\03 - Tank.wav

Peak level 87.6 %
Track quality 100.0 %
Test CRC B76A9CEE
Copy CRC B76A9CEE
Accurately ripped (confidence 3) [BF5AF932]
Copy OK

Track 4

Filename C:\torrent\Emerson Lake & Palmer - The Original Bootleg Series from The Manticore Vaults Vol. 4 (2006) [FLAC] Box set\Set 1-Hartford Civic Centre\Disc 2\04 - Nutrocker.wav

Peak level 89.0 %
Track quality 100.0 %
Test CRC 44CE255B
Copy CRC 44CE255B
Accurately ripped (confidence 3) [30D860C0]
Copy OK

Track 5

Filename C:\torrent\Emerson Lake & Palmer - The Original Bootleg Series from The Manticore Vaults Vol. 4 (2006) [FLAC] Box set\Set 1-Hartford Civic Centre\Disc 2\05 - Pirates.wav

Peak level 89.6 %
Track quality 100.0 %
Test CRC 3C3A6D79
Copy CRC 3C3A6D79
Accurately ripped (confidence 3) [85A8E0AC]
Copy OK

Track 6

Filename C:\torrent\Emerson Lake & Palmer - The Original Bootleg Series from The Manticore Vaults Vol. 4 (2006) [FLAC] Box set\Set 1-Hartford Civic Centre\Disc 2\06 - Fanfare For The Common Man.wav

Peak level 90.8 %
Track quality 100.0 %
Test CRC 2441C4E9
Copy CRC 2441C4E9
Accurately ripped (confidence 3) [311E298F]
Copy OK


All tracks accurately ripped

No errors occurred

End of status report


Emerson, Lake & Palmer - The Original Bootleg Series from The Manticore Vaults Vol. 4 Set 1 (2006) {2CD Castle Music rec 1977}


see more ELP - Original Bootleg…

NEXT -> The Original Bootleg Series from the Manticore Vaults Vol. 1-Vol. 4 (Complete)…


===