Tags
Language
Tags

Elvin Jones - Puttin' It Together (1968) {2014 Japan SHM-CD Blue Note 24-192 Remaster}

Posted By: ruskaval
Elvin Jones - Puttin' It Together (1968) {2014 Japan SHM-CD Blue Note 24-192 Remaster}

Elvin Jones - Puttin' It Together (1968) {2014 Japan SHM-CD Blue Note 24-192 Remaster}
EAC rip (secure mode) | FLAC (tracks)+CUE+LOG -> 263 Mb | MP3 @320 -> 99 Mb
Full Artwork @ 600 dpi (png) -> 295 Mb | 5% repair rar | 24-bit 192 kHz remaster
© 1968, 2014 Universal Japan / Blue Note | BN 75th The Masterworks | UCCQ-5051
Jazz / Post Bop / Modal Music / Avant-Garde Jazz / Drums

Features the high-fidelity SHM-CD format (compatible with standard CD player) and the latest 24bit 192kHz remastering. Proof that Elvin Jones wasn't just riding on the laurels of the Great One during his years with John Coltrane – as the album's a breakout date that has Jones firmly establishing his own voice in jazz! There's an explosive power here that makes us think that Elvin must have really just been biding his time with Coltrane – waiting for the chance to try out his own new ideas in music, and finding the perfect accompanists here in a trio that includes Jimmy Garrison on bass and a young Joe Farrell on tenor, soprano sax, and flute! The lack of a piano in the group really makes for a sense of new freedom that's totally great – not dreamy, melodic piano-less work, as in some of the LA groups of earlier years – but a searing, soaring intensity that Farrell was a perfect choice to head up.

Elvin Jones - Puttin' It Together (1968) {2014 Japan SHM-CD Blue Note 24-192 Remaster}


And while the format might serve to be an excuse for Coltrane-styled blowing, the approach here is decidedly not – a more focused, energy driven approach that really makes strong use of Jones' work on the drum kit, throbs with soulful undercurrents from Garrison's bass, and is topped off by angular, effortlessly-blown lines from Farrell – clearly pointing the way towards a generation of players that would emerge in his wake during the 70s. Tracks include "Village Greene", "Reza", "Kei Ko's Birthday March", and "Sweet Little Mama".
Elvin Jones - Puttin' It Together (1968) {2014 Japan SHM-CD Blue Note 24-192 Remaster}


Personnel:
Elvin Jones - drums
Joe Farrell - tenor saxophone, soprano saxophone, alto flute, piccolo
Jimmy Garrison - bass

Elvin Jones - Puttin' It Together (1968) {2014 Japan SHM-CD Blue Note 24-192 Remaster}


tracklist:
01 - Reza
02 - Sweet Little Maia
03 - Keiko's Birthday March
04 - Village Greene
05 - Jay-Ree
06 - For Heaven's Sake
07 - Ginger Bread Boy

Exact Audio Copy V1.1 from 23. June 2015

EAC extraction logfile from 28. December 2015, 20:04

Elvin Jones / Puttin' It Together

Used drive : TSSTcorpCDDVDW SE-208DB Adapter: 7 ID: 0

Read mode : Secure
Utilize accurate stream : Yes
Defeat audio cache : Yes
Make use of C2 pointers : No

Read offset correction : 6
Overread into Lead-In and Lead-Out : No
Fill up missing offset samples with silence : Yes
Delete leading and trailing silent blocks : No
Null samples used in CRC calculations : Yes
Used interface : Installed external ASPI interface
Gap handling : Appended to previous track

Used output format : User Defined Encoder
Selected bitrate : 1024 kBit/s
Quality : High
Add ID3 tag : No
Command line compressor : C:\Program Files (x86)\FLAC Frontend\tools\flac.exe
Additional command line options : -8 -V -T "ARTIST=%artist%" -T "TITLE=%title%" -T "ALBUM=%albumtitle%" -T "DATE=%year%" -T "TRACKNUMBER=%tracknr%" -T "TOTALTRACKS=%numtracks%" -T "GENRE=%genre%" -T "ALBUMARTIST=%albumartist%" -T "ALBUM ARTIST=%albumartist%" -T "COMMENT=EAC Secure Mode, Test & Copy, AccurateRip, FLAC -8" %source%


TOC of the extracted CD

Track | Start | Length | Start sector | End sector
––––––––––––––––––––––––––––-
1 | 0:00.00 | 7:14.70 | 0 | 32619
2 | 7:14.70 | 7:50.00 | 32620 | 67869
3 | 15:04.70 | 6:53.18 | 67870 | 98862
4 | 21:58.13 | 5:11.25 | 98863 | 122212
5 | 27:09.38 | 3:50.70 | 122213 | 139532
6 | 31:00.33 | 5:07.22 | 139533 | 162579
7 | 36:07.55 | 5:10.65 | 162580 | 185894


Track 1

Filename M:\_EAC\Elvin Jones - Puttin' It Together (1968) [FLAC] {UCCQ-5051}\01 - Reza.wav

Pre-gap length 0:00:02.00

Peak level 98.6 %
Extraction speed 1.0 X
Track quality 99.9 %
Test CRC 3B6EE917
Copy CRC 3B6EE917
Accurately ripped (confidence 2) [C5CD9D82] (AR v2)
Copy OK

Track 2

Filename M:\_EAC\Elvin Jones - Puttin' It Together (1968) [FLAC] {UCCQ-5051}\02 - Sweet Little Maia.wav

Pre-gap length 0:00:02.28

Peak level 99.2 %
Extraction speed 1.3 X
Track quality 100.0 %
Test CRC BE0C64EB
Copy CRC BE0C64EB
Accurately ripped (confidence 2) [B4C6E6E8] (AR v2)
Copy OK

Track 3

Filename M:\_EAC\Elvin Jones - Puttin' It Together (1968) [FLAC] {UCCQ-5051}\03 - Keiko's Birthday March.wav

Pre-gap length 0:00:02.28

Peak level 98.3 %
Extraction speed 1.4 X
Track quality 100.0 %
Test CRC B7A80B33
Copy CRC B7A80B33
Accurately ripped (confidence 2) [CA38E372] (AR v2)
Copy OK

Track 4

Filename M:\_EAC\Elvin Jones - Puttin' It Together (1968) [FLAC] {UCCQ-5051}\04 - Village Greene.wav

Pre-gap length 0:00:02.28

Peak level 99.1 %
Extraction speed 1.5 X
Track quality 100.0 %
Test CRC D5935449
Copy CRC D5935449
Accurately ripped (confidence 2) [3565D7EC] (AR v2)
Copy OK

Track 5

Filename M:\_EAC\Elvin Jones - Puttin' It Together (1968) [FLAC] {UCCQ-5051}\05 - Jay-Ree.wav

Pre-gap length 0:00:02.28

Peak level 99.5 %
Extraction speed 1.5 X
Track quality 100.0 %
Test CRC 91B7A8C3
Copy CRC 91B7A8C3
Accurately ripped (confidence 3) [A4FE91BA] (AR v2)
Copy OK

Track 6

Filename M:\_EAC\Elvin Jones - Puttin' It Together (1968) [FLAC] {UCCQ-5051}\06 - For Heaven's Sake.wav

Pre-gap length 0:00:02.28

Peak level 99.9 %
Extraction speed 1.6 X
Track quality 100.0 %
Test CRC 88C5D58A
Copy CRC 88C5D58A
Accurately ripped (confidence 3) [3E754506] (AR v2)
Copy OK

Track 7

Filename M:\_EAC\Elvin Jones - Puttin' It Together (1968) [FLAC] {UCCQ-5051}\07 - Ginger Bread Boy.wav

Pre-gap length 0:00:02.28

Peak level 98.4 %
Extraction speed 1.6 X
Track quality 100.0 %
Test CRC 88B62302
Copy CRC 88B62302
Accurately ripped (confidence 3) [5AC91615] (AR v2)
Copy OK


All tracks accurately ripped

No errors occurred

End of status report

==== Log checksum 98EAD59EC13FA07CA479179213A5E7843D30930F95690A911134471081AE451C ====


Elvin Jones - Puttin' It Together (1968) {2014 Japan SHM-CD Blue Note 24-192 Remaster}

Elvin Jones - Puttin' It Together (1968) {2014 Japan SHM-CD Blue Note 24-192 Remaster}



===