Subcategories

Elvis Presley - Live In Las Vegas (4-CD BOXSET) (2001)

Posted By: stfine
Elvis Presley - Live In Las Vegas (4-CD BOXSET) (2001)

Elvis Presley - Live In Las Vegas (4-CD BOXSET) (2001)
Rock, Rock & Roll, Oldies | APE + CUE, LOG | covers | 1.4 GB

First comprehensive appearance of Elvis' legendary appearances in Las Vegas from 1956-1957. Includes 86 performances, 53 previously unreleased. Digitally remastered for superior sound.

CD1
01 - Blue Suede Shoes [2:38]
02 - I Got A Woman [2:55]
03 - All Shook Up [1:49]
04 - Elvis Welcomes The Audience [1:08]
05 - Love Me Tender [2:37]
06 - Jailhouse Rock / Don't Be Cruel [2:50]
07 - Heartbreak Hotel [2:01]
08 - Hound Dog [3:22]
09 - I Can't Stop Loving You [2:42]
10 - Johnny B. Goode [3:15]
11 - Baby What You Want Me To Do [2:37]
12 - Runaway [2:16]
13 - Are You Lonesome Tonight [3:03]
14 - Yesterday / Hey Jude [4:06]
15 - Introductions [2:34]
16 - In The Ghetto [2:47]
17 - Suspicious Minds [6:32]
18 - What'd I Say [3:47]
19 - Can't Help Falling In Love [2:11]
20 - Elvis Talks About His Career [6:41]
Exact Audio Copy V0.99 prebeta 4 from 23. January 2008

Отчёт EAC об извлечении, выполненном 11. мая 2009, 22:50

Elvis Presley / Elvis: Live In Las Vegas (CD 1/4)

Дисковод: ASUS DRW-2014L1T Adapter: 2 ID: 2

Режим чтения : Достоверность
Использование точного потока : Да
Отключение кэша аудио : Да
Использование указателей C2 : Нет

Коррекция смещения при чтении : 6
Способность читать области Lead-in и Lead-out : Нет
Заполнение пропущенных сэмплов тишиной : Да
Удаление блоков с тишиной в начале и конце : Нет
При вычислениях CRC использовались нулевые сэмплы : Нет
Интерфейс : Встроенный Win32-интерфейс для Win NT/2000

Выходной формат : Monkey's Audio Lossless Encoder v3.99 DLL
Формат сэмплов : High Lossless Compression


TOC извлечённого CD

Трек | Старт | Длительность | Начальный сектор | Конечный сектор
––––––––––––––––––––––––––––––––––-
1 | 0:00.00 | 2:38.17 | 0 | 11866
2 | 2:38.17 | 2:54.68 | 11867 | 24984
3 | 5:33.10 | 1:48.67 | 24985 | 33151
4 | 7:22.02 | 1:08.30 | 33152 | 38281
5 | 8:30.32 | 2:37.08 | 38282 | 50064
6 | 11:07.40 | 2:50.20 | 50065 | 62834
7 | 13:57.60 | 2:00.47 | 62835 | 71881
8 | 15:58.32 | 3:22.30 | 71882 | 87061
9 | 19:20.62 | 2:42.30 | 87062 | 99241
10 | 22:03.17 | 3:15.28 | 99242 | 113894
11 | 25:18.45 | 2:36.62 | 113895 | 125656
12 | 27:55.32 | 2:15.50 | 125657 | 135831
13 | 30:11.07 | 3:03.08 | 135832 | 149564
14 | 33:14.15 | 4:05.65 | 149565 | 168004
15 | 37:20.05 | 2:33.65 | 168005 | 179544
16 | 39:53.70 | 2:47.02 | 179545 | 192071
17 | 42:40.72 | 6:32.28 | 192072 | 221499
18 | 49:13.25 | 3:46.70 | 221500 | 238519
19 | 53:00.20 | 2:11.05 | 238520 | 248349
20 | 55:11.25 | 6:41.20 | 248350 | 278444


Характеристики диапазона извлечения и сообщения об ошибках

Выбранный диапазон

Имя файла N:\Музыка на разбор\!! Extract !!\Elvis Presley-2001-Elvis- Live In Las Vegas (CD1).ape

Пиковый уровень 99.6 %
Качество диапазона 100.0 %
CRC копии E7C5BA0A
Копирование… OK

Ошибок не произошло

Конец отчёта


CD2
01 - That's All Right [2:47]
02 - I Got a Woman [2:34]
03 - Hound Dog [3:59]
04 - Love Me Tender [2:56]
05 - There Goes My Everything [3:56]
06 - Just Pretend [4:18]
07 - I Just Can't Help Believin' [4:53]
08 - Something [3:38]
09 - Men with Broken Hearts [0:40]
10 - Walk a Mile in My Shoes [2:12]
11 - You've Lost That Loving Feeling [4:32]
12 - Polk Salad Annie [5:11]
13 - One Night [2:00]
14 - Don't Be Cruel [1:34]
15 - Love Me [1:56]
16 - Instrumental Vamp [0:58]
17 - Heartbreak Hotel [2:19]
18 - Introductions [2:25]
19 - Bridge Over Troubled Water [4:14]
20 - Suspicious Minds [6:05]
21 - Can't Help Falling in Love [2:08]
22 - When the Snow Is on the Roses [1:57]
Exact Audio Copy V0.99 prebeta 4 from 23. January 2008

Отчёт EAC об извлечении, выполненном 11. мая 2009, 23:02

Elvis Presley / Elvis: Live In Las Vegas (CD 2/4)

Дисковод: ASUS DRW-2014L1T Adapter: 2 ID: 2

Режим чтения : Достоверность
Использование точного потока : Да
Отключение кэша аудио : Да
Использование указателей C2 : Нет

Коррекция смещения при чтении : 6
Способность читать области Lead-in и Lead-out : Нет
Заполнение пропущенных сэмплов тишиной : Да
Удаление блоков с тишиной в начале и конце : Нет
При вычислениях CRC использовались нулевые сэмплы : Нет
Интерфейс : Встроенный Win32-интерфейс для Win NT/2000

Выходной формат : Monkey's Audio Lossless Encoder v3.99 DLL
Формат сэмплов : High Lossless Compression


TOC извлечённого CD

Трек | Старт | Длительность | Начальный сектор | Конечный сектор
––––––––––––––––––––––––––––––––––-
1 | 0:00.00 | 2:47.35 | 0 | 12559
2 | 2:47.35 | 2:34.20 | 12560 | 24129
3 | 5:21.55 | 3:58.57 | 24130 | 42036
4 | 9:20.37 | 2:56.25 | 42037 | 55261
5 | 12:16.62 | 3:56.33 | 55262 | 72994
6 | 16:13.20 | 4:18.00 | 72995 | 92344
7 | 20:31.20 | 4:53.37 | 92345 | 114356
8 | 25:24.57 | 3:38.25 | 114357 | 130731
9 | 29:03.07 | 0:40.15 | 130732 | 133746
10 | 29:43.22 | 2:12.23 | 133747 | 143669
11 | 31:55.45 | 4:31.52 | 143670 | 164046
12 | 36:27.22 | 5:10.38 | 164047 | 187334
13 | 41:37.60 | 1:59.65 | 187335 | 196324
14 | 43:37.50 | 1:34.25 | 196325 | 203399
15 | 45:12.00 | 1:56.15 | 203400 | 212114
16 | 47:08.15 | 0:58.30 | 212115 | 216494
17 | 48:06.45 | 2:19.27 | 216495 | 226946
18 | 50:25.72 | 2:25.08 | 226947 | 237829
19 | 52:51.05 | 4:13.62 | 237830 | 256866
20 | 57:04.67 | 6:04.43 | 256867 | 284209
21 | 63:09.35 | 2:08.27 | 284210 | 293836
22 | 65:17.62 | 1:57.18 | 293837 | 302629


Характеристики диапазона извлечения и сообщения об ошибках

Выбранный диапазон

Имя файла N:\Музыка на разбор\!! Extract !!\Elvis Presley-2001-Elvis- Live In Las Vegas (CD2).ape

Пиковый уровень 99.4 %
Качество диапазона 100.0 %
CRC копии 7C448E89
Копирование… OK

Ошибок не произошло

Конец отчёта


CD3
01 - See See Rider [2:34]
02 - Release Me [3:10]
03 - Sweet Caroline [2:52]
04 - The Wonder Of You [2:30]
05 - Polk Salad Annie [5:27]
06 - Proud Mary [2:41]
07 - Walk A Mile In My Shoes (Live - 19.02.1970 MS) [2:50]
08 - In The Ghetto (Live - 19.02.1970 MS) [2:31]
09 - Let It Be Me (Live - 17.02.1970 MS) [3:26]
10 - Don't Cry Daddy [2:54]
11 - Kentucky Rain [3:07]
12 - Long Tall Sally (Live - 18.02.1970 MS) [1:30]
13 - I Can't Stop Loving You (Live - 19.02.1970 MS) [3:10]
14 - Suspicious Minds (Live - 16.02.1970 DS) [5:02]
15 - Nevere Been To Spain [3:27]
16 - You Gave Me A Mountain [3:14]
17 - It's Impossible [2:52]
18 - It's Over [2:20]
19 - Hound Dog [1:07]
20 - Little Sister/Get Back [1:55]
21 - A Big Hunk O' Love [2:03]
22 - The Impossible Dream [2:27]
23 - An American Trilogy [4:27]
Exact Audio Copy V0.99 prebeta 4 from 23. January 2008

Отчёт EAC об извлечении, выполненном 11. мая 2009, 23:11

Elvis Presley / Elvis: Live In Las Vegas (CD 3/4)

Дисковод: ASUS DRW-2014L1T Adapter: 2 ID: 2

Режим чтения : Достоверность
Использование точного потока : Да
Отключение кэша аудио : Да
Использование указателей C2 : Нет

Коррекция смещения при чтении : 6
Способность читать области Lead-in и Lead-out : Нет
Заполнение пропущенных сэмплов тишиной : Да
Удаление блоков с тишиной в начале и конце : Нет
При вычислениях CRC использовались нулевые сэмплы : Нет
Интерфейс : Встроенный Win32-интерфейс для Win NT/2000

Выходной формат : Monkey's Audio Lossless Encoder v3.99 DLL
Формат сэмплов : High Lossless Compression


TOC извлечённого CD

Трек | Старт | Длительность | Начальный сектор | Конечный сектор
––––––––––––––––––––––––––––––––––-
1 | 0:00.00 | 2:34.30 | 0 | 11579
2 | 2:34.30 | 3:09.60 | 11580 | 25814
3 | 5:44.15 | 2:52.00 | 25815 | 38714
4 | 8:36.15 | 2:29.40 | 38715 | 49929
5 | 11:05.55 | 5:27.15 | 49930 | 74469
6 | 16:32.70 | 2:41.25 | 74470 | 86569
7 | 19:14.20 | 2:49.62 | 86570 | 99306
8 | 22:04.07 | 2:31.33 | 99307 | 110664
9 | 24:35.40 | 3:26.05 | 110665 | 126119
10 | 28:01.45 | 2:53.52 | 126120 | 139146
11 | 30:55.22 | 3:07.23 | 139147 | 153194
12 | 34:02.45 | 1:29.52 | 153195 | 159921
13 | 35:32.22 | 3:10.10 | 159922 | 174181
14 | 38:42.32 | 5:01.43 | 174182 | 196799
15 | 43:44.00 | 3:27.12 | 196800 | 212336
16 | 47:11.12 | 3:14.20 | 212337 | 226906
17 | 50:25.32 | 2:51.45 | 226907 | 239776
18 | 53:17.02 | 2:19.68 | 239777 | 250269
19 | 55:36.70 | 1:06.60 | 250270 | 255279
20 | 56:43.55 | 1:55.07 | 255280 | 263911
21 | 58:38.62 | 2:03.20 | 263912 | 273156
22 | 60:42.07 | 2:26.58 | 273157 | 284164
23 | 63:08.65 | 4:27.37 | 284165 | 304226


Характеристики диапазона извлечения и сообщения об ошибках

Выбранный диапазон

Имя файла N:\Музыка на разбор\!! Extract !!\Elvis Presley-2001-Elvis- Live In Las Vegas (CD3).ape

Пиковый уровень 100.0 %
Качество диапазона 100.0 %
CRC копии 6A15C759
Копирование… OK

Ошибок не произошло

Конец отчёта


CD4
01 - Heartbreak Hotel [2:55]
02 - Long Tall Sally [2:16]
03 - Blue Suede Shoes [5:17]
04 - Money Honey [2:59]
05 - Promised Land [2:42]
06 - It's Midnight [2:52]
07 - If You Talk in Your Sleep [3:03]
08 - I'm Leavin' [3:59]
09 - Why Me Lord [3:03]
10 - Help Me [2:40]
11 - Softly As I Leave You [2:28]
12 - My Baby Left Me [2:11]
13 - It's Now or Never [3:19]
14 - Hawaiian Wedding Song [1:57]
15 - Trying to Get to You [2:39]
16 - Green, Green Grass of Home [3:36]
17 - You're the Reason I'm Living [2:45]
18 - Big Boss Man [2:30]
19 - Burning Love [2:49]
20 - My Boy [3:50]
21 - And I Love You So [3:21]
22 - Just Pretend [3:45]
23 - How Great Thou Art [4:13]
24 - America the Beautiful [2:15]
Exact Audio Copy V0.99 prebeta 4 from 23. January 2008

Отчёт EAC об извлечении, выполненном 11. мая 2009, 23:37

Elvis Presley / Elvis: Live In Las Vegas (CD 4/4)

Дисковод: ASUS DRW-2014L1T Adapter: 2 ID: 2

Режим чтения : Достоверность
Использование точного потока : Да
Отключение кэша аудио : Да
Использование указателей C2 : Нет

Коррекция смещения при чтении : 6
Способность читать области Lead-in и Lead-out : Нет
Заполнение пропущенных сэмплов тишиной : Да
Удаление блоков с тишиной в начале и конце : Нет
При вычислениях CRC использовались нулевые сэмплы : Нет
Интерфейс : Встроенный Win32-интерфейс для Win NT/2000

Выходной формат : Monkey's Audio Lossless Encoder v3.99 DLL
Формат сэмплов : High Lossless Compression


TOC извлечённого CD

Трек | Старт | Длительность | Начальный сектор | Конечный сектор
––––––––––––––––––––––––––––––––––-
1 | 0:00.00 | 2:55.35 | 0 | 13159
2 | 2:55.35 | 2:15.67 | 13160 | 23351
3 | 5:11.27 | 5:16.70 | 23352 | 47121
4 | 10:28.22 | 2:58.68 | 47122 | 60539
5 | 13:27.15 | 2:41.50 | 60540 | 72664
6 | 16:08.65 | 2:52.37 | 72665 | 85601
7 | 19:01.27 | 3:03.25 | 85602 | 99351
8 | 22:04.52 | 3:58.63 | 99352 | 117264
9 | 26:03.40 | 3:02.67 | 117265 | 130981
10 | 29:06.32 | 2:40.08 | 130982 | 142989
11 | 31:46.40 | 2:27.72 | 142990 | 154086
12 | 34:14.37 | 2:10.40 | 154087 | 163876
13 | 36:25.02 | 3:18.70 | 163877 | 178796
14 | 39:43.72 | 1:57.10 | 178797 | 187581
15 | 41:41.07 | 2:38.68 | 187582 | 199499
16 | 44:20.00 | 3:36.22 | 199500 | 215721
17 | 47:56.22 | 2:45.35 | 215722 | 228131
18 | 50:41.57 | 2:29.43 | 228132 | 239349
19 | 53:11.25 | 2:48.55 | 239350 | 252004
20 | 56:00.05 | 3:49.62 | 252005 | 269241
21 | 59:49.67 | 3:20.58 | 269242 | 284299
22 | 63:10.50 | 3:44.67 | 284300 | 301166
23 | 66:55.42 | 4:12.50 | 301167 | 320116
24 | 71:08.17 | 2:14.45 | 320117 | 330211


Характеристики диапазона извлечения и сообщения об ошибках

Выбранный диапазон

Имя файла N:\Музыка на разбор\!! Extract !!\Elvis Presley-2001-Elvis- Live In Las Vegas (CD4).ape

Пиковый уровень 100.0 %
Качество диапазона 99.9 %
CRC копии 80097857
Копирование… OK

Ошибок не произошло

Конец отчёта


Preview on Amazon