Subcategories

Enrique Iglesias - Greatest Hits (2019)

Posted By: delpotro
Enrique Iglesias - Greatest Hits (2019)

Enrique Iglesias - Greatest Hits (2019)
EAC Rip | FLAC (tracks+log+.cue) - 568 Mb | MP3 CBR 320 kbps - 183 Mb | 01:17:56
Pop | Label: Universal Music

Latin and pop crossover superstar Enrique Iglesias will release the new Greatest Hits collection on 4 October. The 20-song collection highlights the stellar, multi-million-selling career of an artist whose achievements range from urban ballads to anthemic mainstream pop.

The album includes global favourites and chart-topping songs incorporating Iglesias’ adept incorporation of urban beats, tropical influences and elements of dance and electronic music. The retrospective is an affirmation of his standing as one of the few global stars to achieve a true mix of rhythms, flavours and harmonies in their work. These are songs that have captivated a diverse audience for almost a quarter of a century, and led to some remarkable collaborations between genres and generations.

All of Enrique’s mega-hits are included, such as ‘Bailando,’ featuring Sean Paul, Descemer Bueno and Gente de Zona, which was at No. 1 on Billboard’s Hot Latin Songs list for 41 consecutive weeks; ‘I Like It,’ featuring Pitbull, ‘Cuando Me Enamoro,’ with Juan Luis Guerra, and many others.

Iglesias has performed for more than ten million fans during his spectacular career, and received countless awards, including multiple GRAMMYs and Billboard Awards. As a composer, he’s been recognised by ASCAP, and he has multi-platinum status in almost every country in the world. His YouTube/VEVO channel has views in excess of ten billion views, and he has accumulated more than 14 billion total views across all digital platforms.
Tracklist:
1. Bailando (feat. Descemer Bueno & Gente de Zona) [Spanish Version] (04:03)
2. Tonight (I'm F****n' You) [feat. Ludacris & DJ Frank E] (03:54)
3. Hero (04:24)
4. I Like It (feat. Pitbull) (03:51)
5. Bailamos (From "Wild Wild West") (03:35)
6. Do You Know? (The Ping Pong Song) (03:38)
7. Escape (03:29)
8. Be With You (03:39)
9. Cuando Me Enamoro (feat. Juan Luis Guerra) (03:22)
10. Tired Of Being Sorry (04:05)
11. El Perdedor (feat. Marco Antonio Solís) (03:13)
12. Could I Have This Kiss Forever (feat. Whitney Houston) (03:55)
13. Loco (feat. Romeo Santos) (03:33)
14. Heartbeat (feat. Nicole Scherzinger) (04:16)
15. Addicted (05:02)
16. Rhythm Divine (03:29)
17. No Me Digas Que No (feat. Wisin & Yandel) (04:30)
18. Love To See You Cry (04:07)
19. I'm A Freak (feat. Pitbull) (03:39)
20. Bailando (feat. Sean Paul, Descemer Bueno & Gente de Zona) [English Version] (04:03)

Exact Audio Copy V1.3 from 2. September 2016

EAC extraction logfile from 2. November 2019, 22:32

Enrique Iglesias / Greatest Hits

Used drive : PLEXTOR PX-891SAF Adapter: 1 ID: 0

Read mode : Secure
Utilize accurate stream : Yes
Defeat audio cache : Yes
Make use of C2 pointers : No

Read offset correction : 6
Overread into Lead-In and Lead-Out : No
Fill up missing offset samples with silence : Yes
Delete leading and trailing silent blocks : No
Null samples used in CRC calculations : Yes
Used interface : Native Win32 interface for Win NT & 2000
Gap handling : Appended to previous track

Used output format : User Defined Encoder
Selected bitrate : 1024 kBit/s
Quality : High
Add ID3 tag : No
Command line compressor : C:\Program Files (x86)\Exact Audio Copy\Flac\flac.exe
Additional command line options : -8 -V -T "ARTIST=%artist%" -T "TITLE=%title%" -T "ALBUM=%albumtitle%" -T "DATE=%year%" -T "TRACKNUMBER=%tracknr%" -T "GENRE=%genre%" -T "PERFORMER=%albuminterpret%" -T "COMPOSER=%composer%" %haslyrics%–tag-from-file=LYRICS="%lyricsfile%"%haslyrics% -T "ALBUMARTIST=%albumartist%" -T "DISCNUMBER=%cdnumber%" -T "TOTALDISCS=%totalcds%" -T "TOTALTRACKS=%numtracks%" -T "COMMENT=%comment%" %source% -o %dest%


TOC of the extracted CD

Track | Start | Length | Start sector | End sector
––––––––––––––––––––––––––––-
1 | 0:00.00 | 4:03.67 | 0 | 18291
2 | 4:03.67 | 3:54.20 | 18292 | 35861
3 | 7:58.12 | 4:24.48 | 35862 | 55709
4 | 12:22.60 | 3:51.60 | 55710 | 73094
5 | 16:14.45 | 3:35.00 | 73095 | 89219
6 | 19:49.45 | 3:38.16 | 89220 | 105585
7 | 23:27.61 | 3:29.53 | 105586 | 121313
8 | 26:57.39 | 3:39.47 | 121314 | 137785
9 | 30:37.11 | 3:22.55 | 137786 | 152990
10 | 33:59.66 | 4:05.08 | 152991 | 171373
11 | 38:04.74 | 3:13.49 | 171374 | 185897
12 | 41:18.48 | 3:55.24 | 185898 | 203546
13 | 45:13.72 | 3:33.22 | 203547 | 219543
14 | 48:47.19 | 4:16.10 | 219544 | 238753
15 | 53:03.29 | 5:02.24 | 238754 | 261427
16 | 58:05.53 | 3:29.30 | 261428 | 277132
17 | 61:35.08 | 4:30.66 | 277133 | 297448
18 | 66:05.74 | 4:07.08 | 297449 | 315981
19 | 70:13.07 | 3:39.28 | 315982 | 332434
20 | 73:52.35 | 4:03.64 | 332435 | 350723


Track 1

Filename D:\#cdr\#wav+flac\Enrique Iglesias - Greatest Hits\01. Enrique Iglesias - Bailando[Spanish Version].wav

Pre-gap length 0:00:02.00

Peak level 99.8 %
Extraction speed 5.8 X
Track quality 100.0 %
Test CRC 794957D8
Copy CRC 794957D8
Track not present in AccurateRip database
Copy OK

Track 2

Filename D:\#cdr\#wav+flac\Enrique Iglesias - Greatest Hits\02. Enrique Iglesias - Tonight (I'm Fuckin' You).wav

Peak level 100.0 %
Extraction speed 6.2 X
Track quality 100.0 %
Test CRC 18420BB8
Copy CRC 18420BB8
Track not present in AccurateRip database
Copy OK

Track 3

Filename D:\#cdr\#wav+flac\Enrique Iglesias - Greatest Hits\03. Enrique Iglesias - Hero.wav

Peak level 98.8 %
Extraction speed 6.8 X
Track quality 100.0 %
Test CRC 5A7E319D
Copy CRC 5A7E319D
Track not present in AccurateRip database
Copy OK

Track 4

Filename D:\#cdr\#wav+flac\Enrique Iglesias - Greatest Hits\04. Enrique Iglesias - I Like It.wav

Peak level 98.8 %
Extraction speed 7.2 X
Track quality 100.0 %
Test CRC A48BD317
Copy CRC A48BD317
Track not present in AccurateRip database
Copy OK

Track 5

Filename D:\#cdr\#wav+flac\Enrique Iglesias - Greatest Hits\05. Enrique Iglesias - Bailamos.wav

Peak level 99.1 %
Extraction speed 7.4 X
Track quality 100.0 %
Test CRC 31030234
Copy CRC 31030234
Track not present in AccurateRip database
Copy OK

Track 6

Filename D:\#cdr\#wav+flac\Enrique Iglesias - Greatest Hits\06. Enrique Iglesias - Do You Know (The Ping Pong Song).wav

Peak level 98.8 %
Extraction speed 7.8 X
Track quality 100.0 %
Test CRC EF483894
Copy CRC EF483894
Track not present in AccurateRip database
Copy OK

Track 7

Filename D:\#cdr\#wav+flac\Enrique Iglesias - Greatest Hits\07. Enrique Iglesias - Escape.wav

Peak level 98.8 %
Extraction speed 8.0 X
Track quality 100.0 %
Test CRC 9CC602DD
Copy CRC 9CC602DD
Track not present in AccurateRip database
Copy OK

Track 8

Filename D:\#cdr\#wav+flac\Enrique Iglesias - Greatest Hits\08. Enrique Iglesias - Be With You.wav

Peak level 98.8 %
Extraction speed 8.4 X
Track quality 100.0 %
Test CRC 1C9521F0
Copy CRC 1C9521F0
Track not present in AccurateRip database
Copy OK

Track 9

Filename D:\#cdr\#wav+flac\Enrique Iglesias - Greatest Hits\09. Enrique Iglesias - Cuando Me Enamoro.wav

Peak level 100.0 %
Extraction speed 8.6 X
Track quality 100.0 %
Test CRC C87249E8
Copy CRC C87249E8
Track not present in AccurateRip database
Copy OK

Track 10

Filename D:\#cdr\#wav+flac\Enrique Iglesias - Greatest Hits\10. Enrique Iglesias - Tired Of Being Sorry.wav

Peak level 99.9 %
Extraction speed 9.2 X
Track quality 100.0 %
Test CRC BD3EBF58
Copy CRC BD3EBF58
Track not present in AccurateRip database
Copy OK

Track 11

Filename D:\#cdr\#wav+flac\Enrique Iglesias - Greatest Hits\11. Enrique Iglesias - El Perdedor.wav

Peak level 100.0 %
Extraction speed 9.1 X
Track quality 100.0 %
Test CRC B07608D0
Copy CRC B07608D0
Track not present in AccurateRip database
Copy OK

Track 12

Filename D:\#cdr\#wav+flac\Enrique Iglesias - Greatest Hits\12. Enrique Iglesias - Could I Have This Kiss Forever.wav

Peak level 95.7 %
Extraction speed 9.6 X
Track quality 100.0 %
Test CRC D1D7EA69
Copy CRC D1D7EA69
Track not present in AccurateRip database
Copy OK

Track 13

Filename D:\#cdr\#wav+flac\Enrique Iglesias - Greatest Hits\13. Enrique Iglesias - Loco.wav

Peak level 99.8 %
Extraction speed 9.7 X
Track quality 100.0 %
Test CRC CD5E88A2
Copy CRC CD5E88A2
Track not present in AccurateRip database
Copy OK

Track 14

Filename D:\#cdr\#wav+flac\Enrique Iglesias - Greatest Hits\14. Enrique Iglesias - Heartbeat.wav

Peak level 99.9 %
Extraction speed 10.2 X
Track quality 100.0 %
Test CRC 72400C47
Copy CRC 72400C47
Track not present in AccurateRip database
Copy OK

Track 15

Filename D:\#cdr\#wav+flac\Enrique Iglesias - Greatest Hits\15. Enrique Iglesias - Addicted.wav

Peak level 97.1 %
Extraction speed 10.8 X
Track quality 100.0 %
Test CRC 6D177A7B
Copy CRC 6D177A7B
Track not present in AccurateRip database
Copy OK

Track 16

Filename D:\#cdr\#wav+flac\Enrique Iglesias - Greatest Hits\16. Enrique Iglesias - Rhythm Divine.wav

Peak level 98.8 %
Extraction speed 10.6 X
Track quality 100.0 %
Test CRC ADF0EFEB
Copy CRC ADF0EFEB
Track not present in AccurateRip database
Copy OK

Track 17

Filename D:\#cdr\#wav+flac\Enrique Iglesias - Greatest Hits\17. Enrique Iglesias - No Me Digas Que No.wav

Peak level 98.8 %
Extraction speed 9.4 X
Track quality 99.9 %
Test CRC 93E4BD0A
Copy CRC 93E4BD0A
Track not present in AccurateRip database
Copy OK

Track 18

Filename D:\#cdr\#wav+flac\Enrique Iglesias - Greatest Hits\18. Enrique Iglesias - Love To See You Cry.wav

Peak level 98.8 %
Extraction speed 11.1 X
Track quality 100.0 %
Test CRC 2AB41365
Copy CRC 2AB41365
Track not present in AccurateRip database
Copy OK

Track 19

Filename D:\#cdr\#wav+flac\Enrique Iglesias - Greatest Hits\19. Enrique Iglesias - I'm A Freak.wav

Peak level 99.8 %
Extraction speed 11.4 X
Track quality 100.0 %
Test CRC 625E192A
Copy CRC 625E192A
Track not present in AccurateRip database
Copy OK

Track 20

Filename D:\#cdr\#wav+flac\Enrique Iglesias - Greatest Hits\20. Enrique Iglesias - Bailando[English Version].wav

Peak level 99.8 %
Extraction speed 11.7 X
Track quality 100.0 %
Test CRC 733BD252
Copy CRC 733BD252
Track not present in AccurateRip database
Copy OK


None of the tracks are present in the AccurateRip database

No errors occurred

End of status report

–– CUETools DB Plugin V2.1.6

[CTDB TOCID: VnM45EnbVP.sY2kLkTermopKOIA-] disk not present in database
Submit result: VnM45EnbVP.sY2kLkTermopKOIA- has been uploaded


==== Log checksum 8444F06850A9278ADA72B8A3B32AD6D01E2D1875990E36DF07D77543F0971A12 ====

––––––––––––––––––––––––––––––

Exact Audio Copy V1.3 from 2. September 2016

EAC extraction logfile from 2. November 2019, 22:32

Enrique Iglesias / Greatest Hits

Used drive : PLEXTOR PX-891SAF Adapter: 1 ID: 0

Read mode : Secure
Utilize accurate stream : Yes
Defeat audio cache : Yes
Make use of C2 pointers : No

Read offset correction : 6
Overread into Lead-In and Lead-Out : No
Fill up missing offset samples with silence : Yes
Delete leading and trailing silent blocks : No
Null samples used in CRC calculations : Yes
Used interface : Native Win32 interface for Win NT & 2000
Gap handling : Appended to previous track

Used output format : User Defined Encoder
Selected bitrate : 1024 kBit/s
Quality : High
Add ID3 tag : No
Command line compressor : C:\Program Files (x86)\Exact Audio Copy\Flac\flac.exe
Additional command line options : -8 -V -T "ARTIST=%artist%" -T "TITLE=%title%" -T "ALBUM=%albumtitle%" -T "DATE=%year%" -T "TRACKNUMBER=%tracknr%" -T "GENRE=%genre%" -T "PERFORMER=%albuminterpret%" -T "COMPOSER=%composer%" %haslyrics%–tag-from-file=LYRICS="%lyricsfile%"%haslyrics% -T "ALBUMARTIST=%albumartist%" -T "DISCNUMBER=%cdnumber%" -T "TOTALDISCS=%totalcds%" -T "TOTALTRACKS=%numtracks%" -T "COMMENT=%comment%" %source% -o %dest%


TOC of the extracted CD

Track | Start | Length | Start sector | End sector
––––––––––––––––––––––––––––-
1 | 0:00.00 | 4:03.67 | 0 | 18291
2 | 4:03.67 | 3:54.20 | 18292 | 35861
3 | 7:58.12 | 4:24.48 | 35862 | 55709
4 | 12:22.60 | 3:51.60 | 55710 | 73094
5 | 16:14.45 | 3:35.00 | 73095 | 89219
6 | 19:49.45 | 3:38.16 | 89220 | 105585
7 | 23:27.61 | 3:29.53 | 105586 | 121313
8 | 26:57.39 | 3:39.47 | 121314 | 137785
9 | 30:37.11 | 3:22.55 | 137786 | 152990
10 | 33:59.66 | 4:05.08 | 152991 | 171373
11 | 38:04.74 | 3:13.49 | 171374 | 185897
12 | 41:18.48 | 3:55.24 | 185898 | 203546
13 | 45:13.72 | 3:33.22 | 203547 | 219543
14 | 48:47.19 | 4:16.10 | 219544 | 238753
15 | 53:03.29 | 5:02.24 | 238754 | 261427
16 | 58:05.53 | 3:29.30 | 261428 | 277132
17 | 61:35.08 | 4:30.66 | 277133 | 297448
18 | 66:05.74 | 4:07.08 | 297449 | 315981
19 | 70:13.07 | 3:39.28 | 315982 | 332434
20 | 73:52.35 | 4:03.64 | 332435 | 350723


Track 1

Filename D:\#cdr\#wav+flac\Enrique Iglesias - Greatest Hits\01. Enrique Iglesias - Bailando[Spanish Version].wav

Pre-gap length 0:00:02.00

Peak level 99.8 %
Extraction speed 5.8 X
Track quality 100.0 %
Test CRC 794957D8
Copy CRC 794957D8
Track not present in AccurateRip database
Copy OK

Track 2

Filename D:\#cdr\#wav+flac\Enrique Iglesias - Greatest Hits\02. Enrique Iglesias - Tonight (I'm Fuckin' You).wav

Peak level 100.0 %
Extraction speed 6.2 X
Track quality 100.0 %
Test CRC 18420BB8
Copy CRC 18420BB8
Track not present in AccurateRip database
Copy OK

Track 3

Filename D:\#cdr\#wav+flac\Enrique Iglesias - Greatest Hits\03. Enrique Iglesias - Hero.wav

Peak level 98.8 %
Extraction speed 6.8 X
Track quality 100.0 %
Test CRC 5A7E319D
Copy CRC 5A7E319D
Track not present in AccurateRip database
Copy OK

Track 4

Filename D:\#cdr\#wav+flac\Enrique Iglesias - Greatest Hits\04. Enrique Iglesias - I Like It.wav

Peak level 98.8 %
Extraction speed 7.2 X
Track quality 100.0 %
Test CRC A48BD317
Copy CRC A48BD317
Track not present in AccurateRip database
Copy OK

Track 5

Filename D:\#cdr\#wav+flac\Enrique Iglesias - Greatest Hits\05. Enrique Iglesias - Bailamos.wav

Peak level 99.1 %
Extraction speed 7.4 X
Track quality 100.0 %
Test CRC 31030234
Copy CRC 31030234
Track not present in AccurateRip database
Copy OK

Track 6

Filename D:\#cdr\#wav+flac\Enrique Iglesias - Greatest Hits\06. Enrique Iglesias - Do You Know (The Ping Pong Song).wav

Peak level 98.8 %
Extraction speed 7.8 X
Track quality 100.0 %
Test CRC EF483894
Copy CRC EF483894
Track not present in AccurateRip database
Copy OK

Track 7

Filename D:\#cdr\#wav+flac\Enrique Iglesias - Greatest Hits\07. Enrique Iglesias - Escape.wav

Peak level 98.8 %
Extraction speed 8.0 X
Track quality 100.0 %
Test CRC 9CC602DD
Copy CRC 9CC602DD
Track not present in AccurateRip database
Copy OK

Track 8

Filename D:\#cdr\#wav+flac\Enrique Iglesias - Greatest Hits\08. Enrique Iglesias - Be With You.wav

Peak level 98.8 %
Extraction speed 8.4 X
Track quality 100.0 %
Test CRC 1C9521F0
Copy CRC 1C9521F0
Track not present in AccurateRip database
Copy OK

Track 9

Filename D:\#cdr\#wav+flac\Enrique Iglesias - Greatest Hits\09. Enrique Iglesias - Cuando Me Enamoro.wav

Peak level 100.0 %
Extraction speed 8.6 X
Track quality 100.0 %
Test CRC C87249E8
Copy CRC C87249E8
Track not present in AccurateRip database
Copy OK

Track 10

Filename D:\#cdr\#wav+flac\Enrique Iglesias - Greatest Hits\10. Enrique Iglesias - Tired Of Being Sorry.wav

Peak level 99.9 %
Extraction speed 9.2 X
Track quality 100.0 %
Test CRC BD3EBF58
Copy CRC BD3EBF58
Track not present in AccurateRip database
Copy OK

Track 11

Filename D:\#cdr\#wav+flac\Enrique Iglesias - Greatest Hits\11. Enrique Iglesias - El Perdedor.wav

Peak level 100.0 %
Extraction speed 9.1 X
Track quality 100.0 %
Test CRC B07608D0
Copy CRC B07608D0
Track not present in AccurateRip database
Copy OK

Track 12

Filename D:\#cdr\#wav+flac\Enrique Iglesias - Greatest Hits\12. Enrique Iglesias - Could I Have This Kiss Forever.wav

Peak level 95.7 %
Extraction speed 9.6 X
Track quality 100.0 %
Test CRC D1D7EA69
Copy CRC D1D7EA69
Track not present in AccurateRip database
Copy OK

Track 13

Filename D:\#cdr\#wav+flac\Enrique Iglesias - Greatest Hits\13. Enrique Iglesias - Loco.wav

Peak level 99.8 %
Extraction speed 9.7 X
Track quality 100.0 %
Test CRC CD5E88A2
Copy CRC CD5E88A2
Track not present in AccurateRip database
Copy OK

Track 14

Filename D:\#cdr\#wav+flac\Enrique Iglesias - Greatest Hits\14. Enrique Iglesias - Heartbeat.wav

Peak level 99.9 %
Extraction speed 10.2 X
Track quality 100.0 %
Test CRC 72400C47
Copy CRC 72400C47
Track not present in AccurateRip database
Copy OK

Track 15

Filename D:\#cdr\#wav+flac\Enrique Iglesias - Greatest Hits\15. Enrique Iglesias - Addicted.wav

Peak level 97.1 %
Extraction speed 10.8 X
Track quality 100.0 %
Test CRC 6D177A7B
Copy CRC 6D177A7B
Track not present in AccurateRip database
Copy OK

Track 16

Filename D:\#cdr\#wav+flac\Enrique Iglesias - Greatest Hits\16. Enrique Iglesias - Rhythm Divine.wav

Peak level 98.8 %
Extraction speed 10.6 X
Track quality 100.0 %
Test CRC ADF0EFEB
Copy CRC ADF0EFEB
Track not present in AccurateRip database
Copy OK

Track 17

Filename D:\#cdr\#wav+flac\Enrique Iglesias - Greatest Hits\17. Enrique Iglesias - No Me Digas Que No.wav

Peak level 98.8 %
Extraction speed 9.4 X
Track quality 99.9 %
Test CRC 93E4BD0A
Copy CRC 93E4BD0A
Track not present in AccurateRip database
Copy OK

Track 18

Filename D:\#cdr\#wav+flac\Enrique Iglesias - Greatest Hits\18. Enrique Iglesias - Love To See You Cry.wav

Peak level 98.8 %
Extraction speed 11.1 X
Track quality 100.0 %
Test CRC 2AB41365
Copy CRC 2AB41365
Track not present in AccurateRip database
Copy OK

Track 19

Filename D:\#cdr\#wav+flac\Enrique Iglesias - Greatest Hits\19. Enrique Iglesias - I'm A Freak.wav

Peak level 99.8 %
Extraction speed 11.4 X
Track quality 100.0 %
Test CRC 625E192A
Copy CRC 625E192A
Track not present in AccurateRip database
Copy OK

Track 20

Filename D:\#cdr\#wav+flac\Enrique Iglesias - Greatest Hits\20. Enrique Iglesias - Bailando[English Version].wav

Peak level 99.8 %
Extraction speed 11.7 X
Track quality 100.0 %
Test CRC 733BD252
Copy CRC 733BD252
Track not present in AccurateRip database
Copy OK


None of the tracks are present in the AccurateRip database

No errors occurred

End of status report

–– CUETools DB Plugin V2.1.6

[CTDB TOCID: VnM45EnbVP.sY2kLkTermopKOIA-] disk not present in database
Submit result: VnM45EnbVP.sY2kLkTermopKOIA- has been uploaded


==== Log checksum 8444F06850A9278ADA72B8A3B32AD6D01E2D1875990E36DF07D77543F0971A12 ====

Thanks to the Original ripper !