Tags
Language
Tags

Ensemble Les Surprises - Rebel de père en fils: Jean-Féry Rebel & François Rebel (2013) {Ambronay AMY303}

Posted By: ruskaval
Ensemble Les Surprises - Rebel de père en fils: Jean-Féry Rebel & François Rebel (2013) {Ambronay AMY303}

Ensemble Les Surprises - Rebel de père en fils: Jean-Féry Rebel & François Rebel (2013) {Ambronay AMY303}
EAC rip (secure mode) | FLAC (tracks)+CUE+LOG -> 414 Mb | MP3 @320 -> 169 Mb
Full Artwork @ 600 dpi (jpg) -> 58 Mb | 5% repair rar
© 2013 Ambronay | AMY303
Classical / Baroque / Chamber Music

Marrying stage 'drama' and chamber 'concert', this debut album from Les Surprises, devised by Louis-Noel Bestion de Camboulas and Juliette Guignard, draws on 18th century French opera. Exploring a dynamic repertoire variously familiar and forgotten, bringing theatre into the salon, these enlightened, intimate arrangements will astonish, inspire and surprise.
Plongée dans l’univers de l’opéra français du XVIIIe siècle, ce premier album des Surprises conçu par Louis-Noël Bestion de Camboulas et Juliette Guignard explore la dynastie musicale des Rebel. Mariant pages familières et inédites, ce répertoire dynamique transporte l’opéra au salon avec des arrangements intimes qui étonnent, inspirent et surprennent.
Ensemble Les Surprises - Rebel de père en fils: Jean-Féry Rebel & François Rebel (2013) {Ambronay AMY303}


Track Listing

01 - Les Caracteres de la danse
02 - Quel eclat dans les cieux
03 - Prelude pour le ballet du jugement de Paris
04 - Air pour Venus
05 - Musette pour Paris
06 - Sarabande pour Junon
07 - Fureur, Amour, secondez mon impatience
08 - Air pour les plaisirs
09 - Enfants de la Paix
10 - Menuets
11 - Hommages eclatants
12 - Recit et Duo Tendre Amour
13 - Air pour les peuples d'Amathonte
14 - Tambourins
15 - Il gemit dans les fers
16 - Chaconne
17 - Trop faible Ismene, helas
18 - Que les vents les plus doux
19 - Le Tombeau de Monsieur de Lully

Exact Audio Copy V1.0 beta 3 from 29. August 2011

EAC extraction logfile from 26. March 2014, 15:43

Les Surprises / Rebel de pere en fils

Used drive : TSSTcorpCDDVDW SH-224DB Adapter: 0 ID: 0

Read mode : Secure
Utilize accurate stream : Yes
Defeat audio cache : Yes
Make use of C2 pointers : No

Read offset correction : 6
Overread into Lead-In and Lead-Out : No
Fill up missing offset samples with silence : Yes
Delete leading and trailing silent blocks : No
Null samples used in CRC calculations : Yes
Used interface : Native Win32 interface for Win NT & 2000
Gap handling : Appended to previous track

Used output format : User Defined Encoder
Selected bitrate : 128 kBit/s
Quality : High
Add ID3 tag : No
Command line compressor : C:\Program Files (x86)\Exact Audio Copy\Flac\flac.exe
Additional command line options : -8 -V -T "ARTIST=%artist%" -T "TITLE=%title%" -T "ALBUM=%albumtitle%" -T "DATE=%year%" -T "TRACKNUMBER=%tracknr%" -T "TOTALTRACKS=%numtracks%" -T "GENRE=%genre%" -T "ALBUMARTIST=%albumartist%" -T "ALBUM ARTIST=%albumartist%" -T "COMMENT=EAC Secure Mode, Test & Copy, AccurateRip, FLAC -8" %source%


TOC of the extracted CD

Track | Start | Length | Start sector | End sector
––––––––––––––––––––––––––––-
1 | 0:00.00 | 8:26.64 | 0 | 38013
2 | 8:26.64 | 3:58.61 | 38014 | 55924
3 | 12:25.50 | 0:50.62 | 55925 | 59736
4 | 13:16.37 | 1:29.32 | 59737 | 66443
5 | 14:45.69 | 1:18.36 | 66444 | 72329
6 | 16:04.30 | 1:42.23 | 72330 | 80002
7 | 17:46.53 | 4:23.24 | 80003 | 99751
8 | 22:10.02 | 1:48.67 | 99752 | 107918
9 | 23:58.69 | 1:42.14 | 107919 | 115582
10 | 25:41.08 | 2:52.04 | 115583 | 128486
11 | 28:33.12 | 2:26.40 | 128487 | 139476
12 | 30:59.52 | 4:04.46 | 139477 | 157822
13 | 35:04.23 | 1:55.48 | 157823 | 166495
14 | 36:59.71 | 2:18.02 | 166496 | 176847
15 | 39:17.73 | 4:09.35 | 176848 | 195557
16 | 43:27.33 | 8:13.01 | 195558 | 232533
17 | 51:40.34 | 3:11.71 | 232534 | 246929
18 | 54:52.30 | 2:13.31 | 246930 | 256935
19 | 57:05.61 | 15:24.14 | 256936 | 326249


Track 1

Filename D:\Musique\Ensemble Les Surprises - Rebel de pere en fils (2013) [FLAC]\01 - Les Caracteres de la danse.wav

Pre-gap length 0:00:02.00

Peak level 60.4 %
Extraction speed 2.0 X
Track quality 100.0 %
Test CRC 461E7404
Copy CRC 461E7404
Accurately ripped (confidence 3) [A466D832] (AR v2)
Copy OK

Track 2

Filename D:\Musique\Ensemble Les Surprises - Rebel de pere en fils (2013) [FLAC]\02 - Quel eclat dans les cieux.wav

Peak level 81.8 %
Extraction speed 2.1 X
Track quality 100.0 %
Test CRC 8E64FF21
Copy CRC 8E64FF21
Accurately ripped (confidence 3) [3552433B] (AR v2)
Copy OK

Track 3

Filename D:\Musique\Ensemble Les Surprises - Rebel de pere en fils (2013) [FLAC]\03 - Prelude pour le ballet du jugement de Paris.wav

Peak level 72.2 %
Extraction speed 1.4 X
Track quality 100.0 %
Test CRC 591190E2
Copy CRC 591190E2
Accurately ripped (confidence 3) [6F037F2E] (AR v2)
Copy OK

Track 4

Filename D:\Musique\Ensemble Les Surprises - Rebel de pere en fils (2013) [FLAC]\04 - Air pour Venus.wav

Peak level 41.1 %
Extraction speed 1.8 X
Track quality 100.0 %
Test CRC 1A543867
Copy CRC 1A543867
Accurately ripped (confidence 3) [3BE97EB5] (AR v2)
Copy OK

Track 5

Filename D:\Musique\Ensemble Les Surprises - Rebel de pere en fils (2013) [FLAC]\05 - Musette pour Paris.wav

Peak level 62.3 %
Extraction speed 1.8 X
Track quality 100.0 %
Test CRC CC2A4B9F
Copy CRC CC2A4B9F
Accurately ripped (confidence 3) [C5E5EC51] (AR v2)
Copy OK

Track 6

Filename D:\Musique\Ensemble Les Surprises - Rebel de pere en fils (2013) [FLAC]\06 - Sarabande pour Junon.wav

Peak level 28.1 %
Extraction speed 2.0 X
Track quality 100.0 %
Test CRC D0577ABA
Copy CRC D0577ABA
Accurately ripped (confidence 3) [52AE01DE] (AR v2)
Copy OK

Track 7

Filename D:\Musique\Ensemble Les Surprises - Rebel de pere en fils (2013) [FLAC]\07 - Fureur, Amour, secondez mon impatience.wav

Peak level 92.2 %
Extraction speed 2.5 X
Track quality 100.0 %
Test CRC 58CC9A76
Copy CRC 58CC9A76
Accurately ripped (confidence 3) [D8C91CF7] (AR v2)
Copy OK

Track 8

Filename D:\Musique\Ensemble Les Surprises - Rebel de pere en fils (2013) [FLAC]\08 - Air pour les plaisirs.wav

Peak level 38.3 %
Extraction speed 1.5 X
Track quality 99.9 %
Test CRC B7FCA647
Copy CRC B7FCA647
Accurately ripped (confidence 3) [039ED550] (AR v2)
Copy OK

Track 9

Filename D:\Musique\Ensemble Les Surprises - Rebel de pere en fils (2013) [FLAC]\09 - Enfants de la Paix.wav

Peak level 86.2 %
Extraction speed 2.2 X
Track quality 100.0 %
Test CRC BC824D96
Copy CRC BC824D96
Accurately ripped (confidence 3) [6145BF35] (AR v2)
Copy OK

Track 10

Filename D:\Musique\Ensemble Les Surprises - Rebel de pere en fils (2013) [FLAC]\10 - Menuets.wav

Peak level 55.9 %
Extraction speed 2.5 X
Track quality 100.0 %
Test CRC 161E8E8F
Copy CRC 161E8E8F
Accurately ripped (confidence 3) [5229DC69] (AR v2)
Copy OK

Track 11

Filename D:\Musique\Ensemble Les Surprises - Rebel de pere en fils (2013) [FLAC]\11 - Hommages eclatants.wav

Peak level 66.0 %
Extraction speed 2.5 X
Track quality 100.0 %
Test CRC 19743E1F
Copy CRC 19743E1F
Accurately ripped (confidence 3) [B0151E4C] (AR v2)
Copy OK

Track 12

Filename D:\Musique\Ensemble Les Surprises - Rebel de pere en fils (2013) [FLAC]\12 - Recit et Duo Tendre Amour.wav

Peak level 85.8 %
Extraction speed 2.8 X
Track quality 100.0 %
Test CRC E038D81F
Copy CRC E038D81F
Accurately ripped (confidence 3) [C041570B] (AR v2)
Copy OK

Track 13

Filename D:\Musique\Ensemble Les Surprises - Rebel de pere en fils (2013) [FLAC]\13 - Air pour les peuples d'Amathonte.wav

Peak level 61.1 %
Extraction speed 2.5 X
Track quality 100.0 %
Test CRC 59D7E0F2
Copy CRC 59D7E0F2
Accurately ripped (confidence 3) [690E750F] (AR v2)
Copy OK

Track 14

Filename D:\Musique\Ensemble Les Surprises - Rebel de pere en fils (2013) [FLAC]\14 - Tambourins.wav

Peak level 71.7 %
Extraction speed 2.7 X
Track quality 100.0 %
Test CRC 79A58D69
Copy CRC 79A58D69
Accurately ripped (confidence 3) [5F6AC2A6] (AR v2)
Copy OK

Track 15

Filename D:\Musique\Ensemble Les Surprises - Rebel de pere en fils (2013) [FLAC]\15 - Il gemit dans les fers.wav

Peak level 74.0 %
Extraction speed 3.1 X
Track quality 100.0 %
Test CRC E2678A2D
Copy CRC E2678A2D
Accurately ripped (confidence 3) [76BBD86D] (AR v2)
Copy OK

Track 16

Filename D:\Musique\Ensemble Les Surprises - Rebel de pere en fils (2013) [FLAC]\16 - Chaconne.wav

Peak level 60.4 %
Extraction speed 3.0 X
Track quality 99.9 %
Test CRC 46B325D5
Copy CRC 46B325D5
Accurately ripped (confidence 3) [55D20768] (AR v2)
Copy OK

Track 17

Filename D:\Musique\Ensemble Les Surprises - Rebel de pere en fils (2013) [FLAC]\17 - Trop faible Ismene, helas.wav

Peak level 88.8 %
Extraction speed 3.3 X
Track quality 100.0 %
Test CRC CA3AD032
Copy CRC CA3AD032
Accurately ripped (confidence 3) [51C7BDF5] (AR v2)
Copy OK

Track 18

Filename D:\Musique\Ensemble Les Surprises - Rebel de pere en fils (2013) [FLAC]\18 - Que les vents les plus doux.wav

Peak level 94.4 %
Extraction speed 2.1 X
Track quality 99.9 %
Test CRC B43A9F05
Copy CRC B43A9F05
Accurately ripped (confidence 3) [1626A9ED] (AR v2)
Copy OK

Track 19

Filename D:\Musique\Ensemble Les Surprises - Rebel de pere en fils (2013) [FLAC]\19 - Le Tombeau de Monsieur de Lully.wav

Peak level 59.8 %
Extraction speed 4.0 X
Track quality 100.0 %
Test CRC B182EC34
Copy CRC B182EC34
Accurately ripped (confidence 3) [E3C63ADD] (AR v2)
Copy OK


All tracks accurately ripped

No errors occurred

End of status report

==== Log checksum DE6B8B43F5F081460200A0AFD2E1C68FEC82BBFC3A30DCA0C1848418B59E8C5E ====


Ensemble Les Surprises - Rebel de père en fils: Jean-Féry Rebel & François Rebel (2013) {Ambronay AMY303}

Ensemble Les Surprises - Rebel de père en fils: Jean-Féry Rebel & François Rebel (2013) {Ambronay AMY303}



===