Tags
Language
Tags

The Latin Jazz Quintet + Eric Dolphy - Caribe (1960) {Prestige OJCCD-819-2 rel 1994}

Posted By: ruskaval
The Latin Jazz Quintet + Eric Dolphy - Caribe (1960) {Prestige OJCCD-819-2 rel 1994}

The Latin Jazz Quintet + Eric Dolphy - Caribé (1960) {Prestige OJCCD-819-2 rel 1994}
EAC rip (secure mode) | FLAC (tracks)+CUE+LOG -> 243 Mb | MP3 @320 -> 92 Mb
Full Artwork @ 300 dpi (jpg) -> 13 Mb | 5% repair rar
© 1960, 1994 Prestige / Fantasy | OJCCD-819-2
Jazz / Post Bop / Latin Jazz / Jazz Blues

This record is the equivalent of throwing a stick of dynamite into a sedate, well-ordered dinner party, having the dynamite go off with a bang, and somehow leaving everything in its place. Such is the volatile Eric Dolphy, a serious wailer on the alto sax and even more idiosyncratic and radical on the bass clarinet, who barges into the lair of Juan Amalbert's Latin Jazz Quintet and doesn't perturb them in the least.

The title track is sheer schizophrenia, the LJQ ambling along in a conga-accented blues walk while Dolphy fires all over the place on alto sax. Even the more animated "Mambo Ricci" has the same kind of group dynamic; Dolphy on fire, Gene Casey calm and deliberate on piano. Only on "Spring Is Here," where Dolphy switches to a contemplative-toned flute, do we find a balanced meeting ground, though his flute solo on "Sunday Go Meetin'" goes back out on a limb. Not an ideal match, then, but fascinating without a doubt.

Personnel
Eric Dolphy – alto saxophone, flute, bass clarinet
Juan Amalbert – congas
Gene Casey – piano
Carlie Simons – vibraphone
Bill Ellington – bass
Manny Ramos - drums, timbales

Recorded at Rudy Van Gelder Studio, Englewood Cliffs, New Jersey, on August 19, 1960

Track Listing
01 - Caribe
02 - Blues In 6/8
03 - First Bass Line
04 - Mambo Ricci
05 - Spring Is Here
06 - Sunday Go Meetin'

EAC extraction logfile from 21. September 2007, 11:53 for CD
The Latin Jazz Quintet & Eric Dolphy / Caribe

Used drive : HL-DT-STCDRW/DVD GCC4482 Adapter: 1 ID: 0
Read mode : Secure with NO C2, accurate stream, disable cache
Read offset correction : 6
Overread into Lead-In and Lead-Out : No

Used output format : C:\Eac\Codecs\flac.exe (User Defined Encoder)
320 kBit/s
Additional command line options : -8 -V -T "artist=%a" -T "title=%t" -T "album=%g" -T "date=%y" -T "tracknumber=%n" -T "genre=%m" -T "comment=EAC Flac 1.1.2 -8" %s

Other options :
Fill up missing offset samples with silence : Yes
Delete leading and trailing silent blocks : No
Installed external ASPI interface


Track 1
Filename C:\Documents and Settings\Desktop\ed\01 - Caribe.wav

Pre-gap length 0:00:02.00

Peak level 100.0 %
Track quality 100.0 %
Test CRC 7B1946D8
Copy CRC 7B1946D8
Copy OK

Track 2
Filename C:\Documents and Settings\Desktop\ed\02 - Blues In 6-8.wav

Pre-gap length 0:00:02.53

Peak level 100.0 %
Track quality 100.0 %
Test CRC 9244E389
Copy CRC 9244E389
Copy OK

Track 3
Filename C:\Documents and Settings\Desktop\ed\03 - First Bass Line.wav

Pre-gap length 0:00:02.26

Peak level 97.0 %
Track quality 100.0 %
Test CRC 7D1214B1
Copy CRC 7D1214B1
Copy OK

Track 4
Filename C:\Documents and Settings\Desktop\ed\04 - Mambo Ricci.wav

Pre-gap length 0:00:02.24

Peak level 100.0 %
Track quality 100.0 %
Test CRC 8A8739B8
Copy CRC 8A8739B8
Copy OK

Track 5
Filename C:\Documents and Settings\Desktop\ed\05 - Spring Is Here.wav

Pre-gap length 0:00:02.20

Peak level 93.8 %
Track quality 100.0 %
Test CRC 63DC47B6
Copy CRC 63DC47B6
Copy OK

Track 6
Filename C:\Documents and Settings\Desktop\ed\06 - Sunday Go Meetin'.wav

Pre-gap length 0:00:02.29

Peak level 90.3 %
Track quality 100.0 %
Test CRC 477A7432
Copy CRC 477A7432
Copy OK

No errors occured


End of status report


The Latin Jazz Quintet + Eric Dolphy - Caribe (1960) {Prestige OJCCD-819-2 rel 1994}

The Latin Jazz Quintet + Eric Dolphy - Caribe (1960) {Prestige OJCCD-819-2 rel 1994}



===