Subcategories
Please register here if you want to download anything!

If domain in your address bar is different from the list below
PLEASE LEAVE THAT SITE IMMEDIATELY
❗IT'S A DANGEROUS FAKE❗



Spicy Magazines for Men! ;-)

Eric Revis - Sing Me Some Cry (2017)

Posted By: delpotro
Eric Revis - Sing Me Some Cry (2017)

Eric Revis - Sing Me Some Cry (2017)
EAC Rip | FLAC (tracks+log+.cue) - 293 Mb | MP3 CBR 320 kbps - 125 Mb | 00:54:28
Jazz | Label: Clean Feed Records

Whether frontier his own ensembles with colleagues like Orrin Evans, Nasheet Waits, Kris Davis, Andrew Cyrille, Darius Jones and Jason Moran, double bassist Eric Revis has established himself as much for his experimentations into the unknown as with mainstream jazz forms (Branford Marsalis Quartet, Betty Carter). On his newest album as a leader, “Sing Me Some Cry” (Clean Feed), he goes a long way beyond anything he’s achieved before. “Sing” is the next step beyond 2013’s “Parallax” (Clean Feed), his first recorded pairing with multi-reedist and MacArthur Fellow Ken Vandermark, the Chicago experimental scion. It shows Revis’ astoundingly flexible range with a huge grounded sound.

Vandermark returns to this session in a quartet with Kris Davis (Revis’ frequent trio partner in a handful of recorded dates with drummer Andrew Cyrille), and a former Chicagoan, Chad Taylor, whom the bassist employed on his acclaimed 2014 quartet session “In Memory of Things Yet Seen.” Together, they reinforce the idea that the identity of the music is relative to context and shared experience.

The various points of departure sprouting from each player’s unique identity fit within the same context because of a shared willingness to experiment with sound and form. Modern creative music is invariably composed of multiple sensibilities. This recording explores these qualities, confirming what has already been said about Revis’ personal aesthetic — one committed to the “stretching the jazz fabric without ripping it apart.” So, in “Sing Me Some Cry” you have traditional vocabulary, free-bop and more, with a continued indifference to established aesthetic ideologies.
Tracklist:
1. Sing Me Some Cry
2. Good Company
3. Pt 44
4. Solstice….The Girls (For Max & Xixi)
5. Obliogo
6. Rye Eclipse
7. Rumples
8. Drunkard's Lullaby
9. Glyph

Exact Audio Copy V1.3 from 2. September 2016

EAC extraction logfile from 3. April 2017, 18:38

Eric Revis Trio / Crowded Solitudes

Used drive : Optiarc BD ROM BC-5650H Adapter: 1 ID: 1

Read mode : Secure
Utilize accurate stream : Yes
Defeat audio cache : Yes
Make use of C2 pointers : No

Read offset correction : 48
Overread into Lead-In and Lead-Out : No
Fill up missing offset samples with silence : Yes
Delete leading and trailing silent blocks : No
Null samples used in CRC calculations : Yes
Used interface : Native Win32 interface for Win NT & 2000
Gap handling : Appended to previous track

Used output format : User Defined Encoder
Selected bitrate : 1024 kBit/s
Quality : High
Add ID3 tag : No
Command line compressor : C:\Program Files\Exact Audio Copy\Flac\flac.exe
Additional command line options : -8 -e -V -T "ARTIST=%artist%" -T "TITLE=%title%" -T "ALBUM=%albumtitle%" -T "DATE=%year%" -T "TRACKNUMBER=%tracknr%" -T "GENRE=%genre%" -T "PERFORMER=%albuminterpret%" -T "COMPOSER=%composer%" %haslyrics%–tag-from-file=LYRICS="%lyricsfile%"%haslyrics% -T "ALBUMARTIST=%albumartist%" -T "DISCNUMBER=%cdnumber%" -T "TOTALDISCS=%totalcds%" -T "TOTALTRACKS=%numtracks%" -T "COMMENT=%comment%" %source% -o %dest%


TOC of the extracted CD

Track | Start | Length | Start sector | End sector
––––––––––––––––––––––––––––-
1 | 0:00.00 | 11:43.04 | 0 | 52728
2 | 11:43.04 | 3:10.69 | 52729 | 67047
3 | 14:53.73 | 6:15.50 | 67048 | 95222
4 | 21:09.48 | 3:11.62 | 95223 | 109609
5 | 24:21.35 | 5:41.24 | 109610 | 135208
6 | 30:02.59 | 4:23.47 | 135209 | 154980
7 | 34:26.31 | 6:49.01 | 154981 | 185656
8 | 41:15.32 | 13:13.01 | 185657 | 245132


Track 1

Filename Z:\home\enconding\FLAC\Eric Revis Trio - Crowded Solitudes (2016)\01 - Arcane.wav

Pre-gap length 0:00:02.00

Peak level 100.0 %
Extraction speed 5.0 X
Track quality 100.0 %
Test CRC C15C74AB
Copy CRC C15C74AB
Accurately ripped (confidence 1) [05EF89CE] (AR v2)
Copy OK

Track 2

Filename Z:\home\enconding\FLAC\Eric Revis Trio - Crowded Solitudes (2016)\02 - Bontah.wav

Pre-gap length 0:00:02.00

Peak level 100.0 %
Extraction speed 5.5 X
Track quality 99.9 %
Test CRC AA88AF4E
Copy CRC AA88AF4E
Accurately ripped (confidence 1) [FDC57C2F] (AR v2)
Copy OK

Track 3

Filename Z:\home\enconding\FLAC\Eric Revis Trio - Crowded Solitudes (2016)\03 - Victoria.wav

Pre-gap length 0:00:02.00

Peak level 98.7 %
Extraction speed 6.2 X
Track quality 100.0 %
Test CRC 56CE3B53
Copy CRC 56CE3B53
Accurately ripped (confidence 1) [7FE7C8D9] (AR v2)
Copy OK

Track 4

Filename Z:\home\enconding\FLAC\Eric Revis Trio - Crowded Solitudes (2016)\04 - QB4R.wav

Pre-gap length 0:00:02.00

Peak level 99.4 %
Extraction speed 6.4 X
Track quality 100.0 %
Test CRC 9A52DCEC
Copy CRC 9A52DCEC
Accurately ripped (confidence 1) [E90E6A58] (AR v2)
Copy OK

Track 5

Filename Z:\home\enconding\FLAC\Eric Revis Trio - Crowded Solitudes (2016)\05 - D.O.C..wav

Pre-gap length 0:00:02.00

Peak level 100.0 %
Extraction speed 7.0 X
Track quality 100.0 %
Test CRC EA3C2F29
Copy CRC EA3C2F29
Accurately ripped (confidence 1) [3CAFE44A] (AR v2)
Copy OK

Track 6

Filename Z:\home\enconding\FLAC\Eric Revis Trio - Crowded Solitudes (2016)\06 - Crowded Solitudes (for B.K.).wav

Pre-gap length 0:00:02.00

Peak level 54.1 %
Extraction speed 7.1 X
Track quality 99.9 %
Test CRC 75EE8E84
Copy CRC 75EE8E84
Accurately ripped (confidence 1) [9D05D023] (AR v2)
Copy OK

Track 7

Filename Z:\home\enconding\FLAC\Eric Revis Trio - Crowded Solitudes (2016)\07 - Vertical Hold.wav

Pre-gap length 0:00:02.00

Peak level 100.0 %
Extraction speed 7.7 X
Track quality 99.9 %
Test CRC DE34ABC2
Copy CRC DE34ABC2
Accurately ripped (confidence 1) [B045545F] (AR v2)
Copy OK

Track 8

Filename Z:\home\enconding\FLAC\Eric Revis Trio - Crowded Solitudes (2016)\08 - Anamnesis - Parts I & II.wav

Pre-gap length 0:00:02.00

Peak level 100.0 %
Extraction speed 8.7 X
Track quality 100.0 %
Test CRC 90B58A39
Copy CRC 90B58A39
Accurately ripped (confidence 1) [2CC0AEB2] (AR v2)
Copy OK


All tracks accurately ripped

No errors occurred

End of status report

==== Log checksum 82F1E536CB3058054E7DCE846D982E4EC1EAB54D81D8C3B062340BFA146FEA39 ====

Thanks to the Original ripper !