Subcategories

Ernest Ranglin - Modern Answers To Old Problems

Posted By: odoacer
Ernest Ranglin - Modern Answers To Old Problems

Ernest Ranglin - Modern Answers To Old Problems
JAZZ | EAC rip | APE(IMAGE+CUE+LOG) | COVERS | 400Mb
Release Date: September 26, 2000 ; Total time:61:00


Ernest Ranglin - Modern Answers To Old Problems


Few musicians blend pop and jazz as gracefully as 68-year-old Ernest Ranglin. His smash 1996 release Below the Bassline and follow-up Memories of Barber Mack effectively mixed jazz with reggae. On his last release In Search of the Lost Riddim (1998), the Jamaican guitar virtuoso extended his jazz-reggae recipe to include pop music from Senegal and vocals by Senegalese superstar Baaba Maal.
Modern Answers to Old Problems is similar to its immediate predecessor, but this time the focus is on jazz, reggae and Nigerian popular styles. Modern Answers offers steamy polyrhythms, raging grooves, buoyant melodies and clever improvisations. It's a terrific cross-cultural jazz release, and an irresistible listen.
A pioneer of both ska and reggae and an expert jazz guitarist to boot, Ernest Ranglin has played with Bob Marley, Jimmy Cliff, Sonny Rollins, Patti Page and Monty Alexander, to name a few. Marley once tried to hire Ranglin as his full-time guitar teacher and musical director, but the guitarist declined. Ranglin remains an understated guitarist with a keen sense of rhythm, and these days he is exploring the West African roots of Jamaican music.
He teams here with master rhythmist Tony Allen, the drummer who propelled Fela Kuti's classic Afro-funk in the 1970s. Drums stand at the forefront of the mix, a production gimmick that might annoy if a lesser musician were involved. But Allen is such a clever skinsman, his cranked-up drumming actually elevates Ranglin's music. Saxmen Denys Baptiste and Courtney Pine act as free-ranging foils for Ranglin's guitar work. And reggae singer Sylvia Tella (Steel Pulse) dazzles with her sultry, elastic singing on about half these songs. Tella wraps her multilingual voice around the syncopations generated by Ranglin, Allen and five London-based musicians, all of whom have Nigerian roots.
Modern Answers is funky, intricate, and it delivers one fiery solo after another. Highlights among the 10 original tracks include a lilting Afro-reggae piece called "Many Roots" and a danceable confection titled "Sound Invasion." Also noteworthy is "Inflight," an upbeat Latin-influenced composition featuring a lighting-quick solo by Ranglin, some far-out blowing by Pine, and Joe Bashorun's propulsive organ.
As Jamaican pianist Monty Alexander recently observed, Ernest Ranglin doesn't play reggae, jazz or blues — he plays all of them at once. There's a tropical accent to this album that's both languorous and lyrical. Modern Answers is as infectious as Fela Kuti's best material, and that's high praise.
Exact Audio Copy V0.99 prebeta 4 from 23. January 2008

EAC extraction logfile from 30. April 2009, 1:39

Ernest Ranglin / Modern Answers To Old Problems

Used drive : TEAC DV-W518GM Adapter: 3 ID: 1

Read mode : Secure
Utilize accurate stream : Yes
Defeat audio cache : Yes
Make use of C2 pointers : No

Read offset correction : 6
Overread into Lead-In and Lead-Out : No
Fill up missing offset samples with silence : Yes
Delete leading and trailing silent blocks : No
Null samples used in CRC calculations : Yes
Used interface : Installed external ASPI interface

Used output format : Monkey's Audio Lossless Encoder
Selected bitrate : Normal Lossless Compression
Quality : High
Add ID3 tag : No
Command line compressor : C:\Program Files\Monkey's Audio\MAC.exe
Additional command line options : -v


TOC of the extracted CD

Track | Start | Length | Start sector | End sector
––––––––––––––––––––––––––––-
1 | 0:00.00 | 6:27.07 | 0 | 29031
2 | 6:27.07 | 5:50.10 | 29032 | 55291
3 | 12:17.17 | 5:14.63 | 55292 | 78904
4 | 17:32.05 | 7:52.72 | 78905 | 114376
5 | 25:25.02 | 5:43.38 | 114377 | 140139
6 | 31:08.40 | 6:25.45 | 140140 | 169059
7 | 37:34.10 | 4:52.50 | 169060 | 191009
8 | 42:26.60 | 7:41.45 | 191010 | 225629
9 | 50:08.30 | 5:52.70 | 225630 | 252099
10 | 56:01.25 | 5:03.25 | 252100 | 274849


Range status and errors

Selected range

Filename C:\Documents and Settings\User\My Documents\My Music\ОБРАЗЫ\Ernest Ranglin - Modern Answers To Old Problems.wav

Peak level 100.0 %
Range quality 99.9 %
Test CRC 9718152D
Copy CRC 9718152D
Copy OK

No errors occurred


AccurateRip summary

Track 1 accurately ripped (confidence 4) [88BCDB93]
Track 2 accurately ripped (confidence 5) [47D15DB6]
Track 3 accurately ripped (confidence 5) [A013E5FF]
Track 4 accurately ripped (confidence 4) [EA2C9DF7]
Track 5 accurately ripped (confidence 5) [199C4133]
Track 6 accurately ripped (confidence 4) [970679E6]
Track 7 accurately ripped (confidence 4) [A0877919]
Track 8 accurately ripped (confidence 5) [4F802E76]
Track 9 accurately ripped (confidence 4) [B5A889A5]
Track 10 accurately ripped (confidence 4) [2364DB06]

All tracks accurately ripped

End of status report



http://narod.ru/disk/8215286000/ERmatop.part1.rar.html
http://narod.ru/disk/8215591000/ERmatop.part2.rar.html
http://narod.ru/disk/8222855000/ERmatopScans.rar.html


http://rapidshare.com/files/227448710/ERmatop.part1.rar
http://rapidshare.com/files/227448847/ERmatop.part2.rar
http://rapidshare.com/files/227448355/ERmatopScans.rar