Tags
Language
Tags

Faye Webster - Atlanta Millionaires Club (2019)

Posted By: Domestos
Faye Webster - Atlanta Millionaires Club (2019)

Faye Webster - Atlanta Millionaires Club (2019)
EAC Rip | FLAC (tracks+.cue, log) ~ 187.55 Mb | 31:45 | Cover
Indie Rock | Country: Canada | Label: Secretly Canadian - SC376

Atlanta Millionaires Club is in Faye Webster's feelings, and that's the way she likes it. "Everything is way personal, " Webster says. "I have to write about very personal things for me to even want to write." On the 21-year-old Atlanta native's album, the omnipresence of pedal steel eschews bluegrass trappings, flexible under Webster's genre-bending direction. Webster didn't set out to make it sound like any artist in particular, but she cites Aaliyah as her main musical inspiration for how she uses sound. Pulling from a familial lineage of folk storytelling and time spent in Atlanta's hip-hop scene, Webster's work is a study of duality, weaving through her own introversion and heartbreak; it's an idiosyncratic sadness punctuated by fleeting observations and an unexpected, sly sense of humor. And like the way Webster takes the traditional instrumentation of Americana and flips it into something else, she uses her own calm, laid-back demeanor to say you can be boldly and unapologetically yourself in a quiet way, too.



Track List:
01. Room Temperature
02. Right Side of My Neck
03. Hurts Me Too
04. Pigeon
05. Jonny
06. Kingston
07. Come to Atlanta
08. What Used to Be Mine
09. Flowers
10. Jonny (reprise)

Exact Audio Copy V1.3 from 2. September 2016

EAC extraction logfile from 20. May 2019, 20:08

Faye Webster / Atlanta Millionaires Club

Used drive : hp DVDRW DU8A6SH Adapter: 1 ID: 0

Read mode : Secure
Utilize accurate stream : Yes
Defeat audio cache : Yes
Make use of C2 pointers : No

Read offset correction : 6
Overread into Lead-In and Lead-Out : No
Fill up missing offset samples with silence : Yes
Delete leading and trailing silent blocks : No
Null samples used in CRC calculations : Yes
Used interface : Native Win32 interface for Win NT & 2000
Gap handling : Appended to previous track

Used output format : User Defined Encoder
Selected bitrate : 1024 kBit/s
Quality : High
Add ID3 tag : No
Command line compressor : C:\Program Files (x86)\Exact Audio Copy\Flac\flac.exe
Additional command line options : -8 -V -T "ARTIST=%artist%" -T "TITLE=%title%" -T "ALBUM=%albumtitle%" -T "DATE=%year%" -T "TRACKNUMBER=%tracknr%" -T "GENRE=%genre%" -T "PERFORMER=%albuminterpret%" -T "COMPOSER=%composer%" %haslyrics%–tag-from-file=LYRICS="%lyricsfile%"%haslyrics% -T "ALBUMARTIST=%albumartist%" -T "DISCNUMBER=%cdnumber%" -T "TOTALDISCS=%totalcds%" -T "TOTALTRACKS=%numtracks%" -T "COMMENT=%comment%" %source% -o %dest%


TOC of the extracted CD

Track | Start | Length | Start sector | End sector
––––––––––––––––––––––––––––-
1 | 0:00.00 | 4:04.23 | 0 | 18322
2 | 4:04.23 | 2:33.24 | 18323 | 29821
3 | 6:37.47 | 3:21.09 | 29822 | 44905
4 | 9:58.56 | 2:38.30 | 44906 | 56785
5 | 12:37.11 | 3:46.38 | 56786 | 73773
6 | 16:23.49 | 3:22.12 | 73774 | 88935
7 | 19:45.61 | 2:32.71 | 88936 | 100406
8 | 22:18.57 | 3:08.63 | 100407 | 114569
9 | 25:27.45 | 4:21.50 | 114570 | 134194
10 | 29:49.20 | 2:00.09 | 134195 | 143203


Track 1

Filename C:\EAC\Faye Webster - Atlanta Millionaires Club (2019) {SC376} [FLAC]\01 - Room Temperature.wav

Pre-gap length 0:00:02.00

Peak level 99.7 %
Extraction speed 2.7 X
Track quality 100.0 %
Test CRC 7333A1F9
Copy CRC 7333A1F9
Track not present in AccurateRip database
Copy OK

Track 2

Filename C:\EAC\Faye Webster - Atlanta Millionaires Club (2019) {SC376} [FLAC]\02 - Right Side of My Neck.wav

Peak level 99.3 %
Extraction speed 2.7 X
Track quality 100.0 %
Test CRC EA12CA50
Copy CRC EA12CA50
Track not present in AccurateRip database
Copy OK

Track 3

Filename C:\EAC\Faye Webster - Atlanta Millionaires Club (2019) {SC376} [FLAC]\03 - Hurts Me Too.wav

Peak level 99.8 %
Extraction speed 3.0 X
Track quality 100.0 %
Test CRC E2236BB2
Copy CRC E2236BB2
Track not present in AccurateRip database
Copy OK

Track 4

Filename C:\EAC\Faye Webster - Atlanta Millionaires Club (2019) {SC376} [FLAC]\04 - Pigeon.wav

Peak level 99.4 %
Extraction speed 3.0 X
Track quality 100.0 %
Test CRC 598E9266
Copy CRC 598E9266
Track not present in AccurateRip database
Copy OK

Track 5

Filename C:\EAC\Faye Webster - Atlanta Millionaires Club (2019) {SC376} [FLAC]\05 - Jonny.wav

Peak level 99.2 %
Extraction speed 3.4 X
Track quality 100.0 %
Test CRC 3F76FB12
Copy CRC 3F76FB12
Track not present in AccurateRip database
Copy OK

Track 6

Filename C:\EAC\Faye Webster - Atlanta Millionaires Club (2019) {SC376} [FLAC]\06 - Kingston.wav

Peak level 100.0 %
Extraction speed 3.0 X
Track quality 99.9 %
Test CRC 4496146E
Copy CRC 4496146E
Track not present in AccurateRip database
Copy OK

Track 7

Filename C:\EAC\Faye Webster - Atlanta Millionaires Club (2019) {SC376} [FLAC]\07 - Come to Atlanta.wav

Peak level 100.0 %
Extraction speed 3.6 X
Track quality 100.0 %
Test CRC E6BB1AB4
Copy CRC E6BB1AB4
Track not present in AccurateRip database
Copy OK

Track 8

Filename C:\EAC\Faye Webster - Atlanta Millionaires Club (2019) {SC376} [FLAC]\08 - What Used to Be Mine.wav

Peak level 98.3 %
Extraction speed 3.8 X
Track quality 100.0 %
Test CRC 20119FBE
Copy CRC 20119FBE
Track not present in AccurateRip database
Copy OK

Track 9

Filename C:\EAC\Faye Webster - Atlanta Millionaires Club (2019) {SC376} [FLAC]\09 - Flowers (feat. Father).wav

Peak level 98.1 %
Extraction speed 4.2 X
Track quality 100.0 %
Test CRC 3C628DC5
Copy CRC 3C628DC5
Track not present in AccurateRip database
Copy OK

Track 10

Filename C:\EAC\Faye Webster - Atlanta Millionaires Club (2019) {SC376} [FLAC]\10 - Jonny (Reprise).wav

Peak level 98.3 %
Extraction speed 3.8 X
Track quality 100.0 %
Test CRC E9C173D6
Copy CRC E9C173D6
Track not present in AccurateRip database
Copy OK


None of the tracks are present in the AccurateRip database

No errors occurred

End of status report

–– CUETools DB Plugin V2.1.6

[CTDB TOCID: ziUl4uBvnkfG4TUh.AEVgNFhwNA-] disk not present in database
Submit result: ziUl4uBvnkfG4TUh.AEVgNFhwNA- has been uploaded


==== Log checksum F9DE87407A3C1A28A8BD18AAB0994B908CD973394B2AF2DE2A42353B4D09AED2 ====

All thanks go to the RED

More Music in My Blog
Follow My RSS Channel