Tags
Language
Tags

Ferdinand Povel - Beboppin' (1983) {2016 Japan Timeless Jazz Master Collection Complete Series CDSOL-6436}

Posted By: ruskaval
Ferdinand Povel - Beboppin' (1983) {2016 Japan Timeless Jazz Master Collection Complete Series CDSOL-6436}

Ferdinand Povel - Beboppin' (1983) {2016 Japan Timeless Jazz Master Collection Complete Series CDSOL-6436}
EAC rip (secure mode) | FLAC (tracks)+CUE+LOG -> 272 Mb | MP3 @320 -> 102 Mb
Full Artwork @ 600 dpi (png) -> 256 Mb | 5% repair rar
© 1983, 2016 Timeless Records / LimeTree / Solid Records Japan / Ultra-Vibe | CDSOL-6436
Jazz / Post Bebop / Post Bop / Saxophone

Reissue with the latest remastering and the original cover artwork. Comes with a description written in Japanese. Ferdinand Povel's one of those players we never seem to get enough of – a tenorist who may not be one of the bigger stars on the European scene, but one who always finds a way to serve up something special! Povel's got a nice edge in his horn at times – a mode that's always inside, but often sharply spoken – even when he's going for some mellower moments too – a bit of old school bite in the way he approaches the reed, maybe – and a definite sense of attack that really comes on when he's in a more swinging mode! The group here has some great guitar from Wim Overgaauw, whose ringing tones bring a bright balance between Povel's horn and the piano of Frans Elsen – and the rest of the group features Victor Kaihatu on bass and Ruud Pronk on drums.
Ferdinand Povel - Beboppin' (1983) {2016 Japan Timeless Jazz Master Collection Complete Series CDSOL-6436}


Musicians

Ferdinand Povel - tenor sax
Wim Overgaauw - guitar
Frans Elsen - piano
Victor Kaihatu - bass
Ruud Pronk - drums

Ferdinand Povel - Beboppin' (1983) {2016 Japan Timeless Jazz Master Collection Complete Series CDSOL-6436}


Track Listing

01 - Deception
02 - Ghost Of A Chance
03 - Beboppin'
04 - I Am Old Fashioned
05 - I Fall In Love Too Easily
06 - Nobody Else But Me
07 - Off Minor

Exact Audio Copy V1.3 from 2. September 2016

EAC extraction logfile from 15. March 2018, 17:01

Ferdinand Povel / Beboppin'

Used drive : ATAPI iHAS122 F Adapter: 1 ID: 2

Read mode : Secure
Utilize accurate stream : Yes
Defeat audio cache : Yes
Make use of C2 pointers : No

Read offset correction : 6
Overread into Lead-In and Lead-Out : No
Fill up missing offset samples with silence : Yes
Delete leading and trailing silent blocks : No
Null samples used in CRC calculations : Yes
Used interface : Native Win32 interface for Win NT & 2000
Gap handling : Appended to previous track

Used output format : User Defined Encoder
Selected bitrate : 1024 kBit/s
Quality : High
Add ID3 tag : No
Command line compressor : C:\Program Files (x86)\Exact Audio Copy_v1.3\Flac\flac.exe
Additional command line options : -8 -V -T "ARTIST=%artist%" -T "TITLE=%title%" -T "ALBUM=%albumtitle%" -T "DATE=%year%" -T "TRACKNUMBER=%tracknr%" -T "TOTALTRACKS=%numtracks%" -T "GENRE=%genre%" -T "ALBUMARTIST=%albumartist%" -T "ALBUM ARTIST=%albumartist%" -T "COMMENT=EAC Secure Mode, Test & Copy, AccurateRip, FLAC -8" %source%


TOC of the extracted CD

Track | Start | Length | Start sector | End sector
––––––––––––––––––––––––––––-
1 | 0:00.00 | 8:31.13 | 0 | 38337
2 | 8:31.13 | 5:00.22 | 38338 | 60859
3 | 13:31.35 | 7:43.51 | 60860 | 95635
4 | 21:15.11 | 6:09.29 | 95636 | 123339
5 | 27:24.40 | 4:11.16 | 123340 | 142180
6 | 31:35.56 | 6:22.31 | 142181 | 170861
7 | 37:58.12 | 5:28.71 | 170862 | 195532


Track 1

Filename D:\_EAC\Ferdinand Povel - Beboppin' (1983) [FLAC] {Timeless Japan CDSOL-6436 rel 2016}\01 - Deception.wav

Pre-gap length 0:00:02.00

Peak level 97.8 %
Extraction speed 5.7 X
Track quality 100.0 %
Test CRC B747B758
Copy CRC B747B758
Track not present in AccurateRip database
Copy OK

Track 2

Filename D:\_EAC\Ferdinand Povel - Beboppin' (1983) [FLAC] {Timeless Japan CDSOL-6436 rel 2016}\02 - Ghost Of A Chance.wav

Peak level 96.0 %
Extraction speed 6.4 X
Track quality 100.0 %
Test CRC ABB1197D
Copy CRC ABB1197D
Track not present in AccurateRip database
Copy OK

Track 3

Filename D:\_EAC\Ferdinand Povel - Beboppin' (1983) [FLAC] {Timeless Japan CDSOL-6436 rel 2016}\03 - Beboppin'.wav

Peak level 97.8 %
Extraction speed 7.4 X
Track quality 100.0 %
Test CRC 29592FED
Copy CRC 29592FED
Track not present in AccurateRip database
Copy OK

Track 4

Filename D:\_EAC\Ferdinand Povel - Beboppin' (1983) [FLAC] {Timeless Japan CDSOL-6436 rel 2016}\04 - I Am Old Fashioned.wav

Peak level 97.8 %
Extraction speed 8.0 X
Track quality 100.0 %
Test CRC 0DDABE61
Copy CRC 0DDABE61
Track not present in AccurateRip database
Copy OK

Track 5

Filename D:\_EAC\Ferdinand Povel - Beboppin' (1983) [FLAC] {Timeless Japan CDSOL-6436 rel 2016}\05 - I Fall In Love Too Easily.wav

Peak level 97.8 %
Extraction speed 8.2 X
Track quality 100.0 %
Test CRC 159E7BFE
Copy CRC 159E7BFE
Track not present in AccurateRip database
Copy OK

Track 6

Filename D:\_EAC\Ferdinand Povel - Beboppin' (1983) [FLAC] {Timeless Japan CDSOL-6436 rel 2016}\06 - Nobody Else But Me.wav

Peak level 97.8 %
Extraction speed 9.0 X
Track quality 100.0 %
Test CRC 97484D6E
Copy CRC 97484D6E
Track not present in AccurateRip database
Copy OK

Track 7

Filename D:\_EAC\Ferdinand Povel - Beboppin' (1983) [FLAC] {Timeless Japan CDSOL-6436 rel 2016}\07 - Off Minor.wav

Peak level 97.8 %
Extraction speed 9.3 X
Track quality 100.0 %
Test CRC 35B70BEB
Copy CRC 35B70BEB
Track not present in AccurateRip database
Copy OK


None of the tracks are present in the AccurateRip database

No errors occurred

End of status report

–– CUETools DB Plugin V2.1.6

[CTDB TOCID: Zg2WMjooXeIurntqNVIf9BSjXMg-] found
Submit result: Zg2WMjooXeIurntqNVIf9BSjXMg- has been confirmed
Track | CTDB Status
1 | (2/2) Accurately ripped
2 | (2/2) Accurately ripped
3 | (2/2) Accurately ripped
4 | (2/2) Accurately ripped
5 | (2/2) Accurately ripped
6 | (2/2) Accurately ripped
7 | (2/2) Accurately ripped


==== Log checksum D06E37245CC416294D1288DE4B1EC0C5859BB213A07A1E5504FB5D48D5ECC731 ====


Ferdinand Povel - Beboppin' (1983) {2016 Japan Timeless Jazz Master Collection Complete Series CDSOL-6436}

Ferdinand Povel - Beboppin' (1983) {2016 Japan Timeless Jazz Master Collection Complete Series CDSOL-6436}


see more Japan Timeless Jazz Master Collection…


===