Fleetwood Mac - Love That Burnst - The Blues Years (2017)

Posted By: delpotro
Fleetwood Mac - Love That Burnst - The Blues Years (2017)

Fleetwood Mac - Love That Burnst - The Blues Years (2017)
EAC Rip | FLAC (image+log+.cue) | Scans included | 02:28:34 | 781 Mb
Blues Rock | Label: Union Square Music Ltd.

Peter Green’s Fleetwood Mac were Britain’s finest blues band. Releasing three seminal albums before breaking up, this double CD of classic Mac - one of famous (and rare) studio recordings and another of fierce live performances - marks the band’s 50th anniversary.
Tracklist:
CD1
01. Albatross (Green)
02. Need Your Love So Bad (John)
03. Long Grey Mare (2001 Remaster) (Green)
04. Intro / Lazy Poker Blues (Green / Adams)
05. My Baby’s Sweeter (Dixon)
06. Talk To Me Baby (James)
07. The Sun Is Shining (James)
08. Earl Vince & The Valiants - Someone’s Gonna Get Their Head Kicked In Tonight (Spencer)
09. Do You Give A Damn For Me? (Green)
10. Buzz Me Baby (Dexter / Moore)
11. Fast Talking Woman Blues (2001 Remaster) (Green)
12. Love That Burns (Green / Adams)
13. Man Of The World (1998 Remaster) (Green)
14. Mind Of My Own (Kirwan)
15. Farewell (Green I Kirwan)
16. How Blue Can You Get? (Feather / Feather)
17. I Have To Laugh (Clark/Rush)
18. Leaving Town Blues (Green)
19. Like It This Way (Kirwan)
20. Tell Me from The Start (Kirwan)
21. The Green Manalishi (With The Two Prong Crown) (Green)
22. World In Harmony (Alternative Take) (Green / Kirwan)

CD2
01. Oh Well (1998 Remaster) (Green)
02. Jumping - At Shadows (2001 Remaster) (Bennett)
03. Stranger Blues (Robinson / James / Lewis)
04. Black Magic Woman (2001 Remaster) (Green)
05. Rattlesnake Shake (Green)
06. The Green Manalishi (With The Two Prong Crown) (Green)
07. Twist And Shout (Medley / Berns / Russell)
08. Coming Your Way (Kirwan)
09. Underway (Green)

Exact Audio Copy V1.3 from 2. September 2016

EAC extraction logfile from 7. October 2017, 14:54

Fleetwood Mac / Love That Burns ~ The Blues Years [Disc One]

Used drive : ATAPI iHAS122 C Adapter: 1 ID: 0

Read mode : Secure
Utilize accurate stream : Yes
Defeat audio cache : Yes
Make use of C2 pointers : No

Read offset correction : 6
Overread into Lead-In and Lead-Out : No
Fill up missing offset samples with silence : Yes
Delete leading and trailing silent blocks : No
Null samples used in CRC calculations : Yes
Used interface : Native Win32 interface for Win NT & 2000

Used output format : Internal WAV Routines
Sample format : 44.100 Hz; 16 Bit; Stereo


TOC of the extracted CD

Track | Start | Length | Start sector | End sector
––––––––––––––––––––––––––––-
1 | 0:00.00 | 3:10.11 | 0 | 14260
2 | 3:10.11 | 3:53.72 | 14261 | 31807
3 | 7:04.08 | 2:00.70 | 31808 | 40877
4 | 9:05.03 | 3:48.42 | 40878 | 58019
5 | 12:53.45 | 3:53.31 | 58020 | 75525
6 | 16:47.01 | 3:38.08 | 75526 | 91883
7 | 20:25.09 | 3:02.71 | 91884 | 105604
8 | 23:28.05 | 2:58.41 | 105605 | 118995
9 | 26:26.46 | 3:40.73 | 118996 | 135568
10 | 30:07.44 | 3:34.23 | 135569 | 151641
11 | 33:41.67 | 3:23.13 | 151642 | 166879
12 | 37:05.05 | 4:15.40 | 166880 | 186044
13 | 41:20.45 | 3:01.43 | 186045 | 199662
14 | 44:22.13 | 3:00.64 | 199663 | 213226
15 | 47:23.02 | 2:18.51 | 213227 | 223627
16 | 49:41.53 | 3:37.37 | 223628 | 239939
17 | 53:19.15 | 3:28.20 | 239940 | 255559
18 | 56:47.35 | 3:50.71 | 255560 | 272880
19 | 60:38.31 | 3:11.11 | 272881 | 287216
20 | 63:49.42 | 2:01.69 | 287217 | 296360
21 | 65:51.36 | 4:43.24 | 296361 | 317609
22 | 70:34.60 | 3:24.02 | 317610 | 332911


Range status and errors

Selected range

Filename C:\Users\London\Desktop\Fleetwood Mac - Love That Burns ~ The Blues Years [Disc One].wav

Peak level 100.0 %
Extraction speed 9.7 X
Range quality 99.9 %
Test CRC 99306FAE
Copy CRC 99306FAE
Copy OK

No errors occurred


AccurateRip summary

Track 1 accurately ripped (confidence 1) [DF1FDEF5] (AR v2)
Track 2 accurately ripped (confidence 1) [DBD85E26] (AR v2)
Track 3 accurately ripped (confidence 1) [0A2065B4] (AR v2)
Track 4 accurately ripped (confidence 1) [5268784F] (AR v2)
Track 5 accurately ripped (confidence 1) [16659C41] (AR v2)
Track 6 accurately ripped (confidence 1) [F5F872F6] (AR v2)
Track 7 accurately ripped (confidence 1) [5ADEDC41] (AR v2)
Track 8 accurately ripped (confidence 1) [2919F9BC] (AR v2)
Track 9 accurately ripped (confidence 1) [1554B389] (AR v2)
Track 10 accurately ripped (confidence 1) [DD2EA3B5] (AR v2)
Track 11 accurately ripped (confidence 1) [E8EBC3B9] (AR v2)
Track 12 accurately ripped (confidence 1) [72B3D0A9] (AR v2)
Track 13 accurately ripped (confidence 1) [62B31950] (AR v2)
Track 14 accurately ripped (confidence 1) [AC8914A2] (AR v2)
Track 15 accurately ripped (confidence 1) [0137CD76] (AR v2)
Track 16 accurately ripped (confidence 1) [026C25D3] (AR v2)
Track 17 accurately ripped (confidence 1) [7C4840B1] (AR v2)
Track 18 accurately ripped (confidence 1) [27C162E1] (AR v2)
Track 19 accurately ripped (confidence 1) [D8AF3ED8] (AR v2)
Track 20 accurately ripped (confidence 1) [0A16D706] (AR v2)
Track 21 accurately ripped (confidence 1) [9C919E90] (AR v2)
Track 22 accurately ripped (confidence 1) [E501BF2B] (AR v2)

All tracks accurately ripped

End of status report

–– CUETools DB Plugin V2.1.6

[CTDB TOCID: Q5wQVf3XvIN7hvbns6UQVo7koGc-] found
Submit result: already submitted
Track | CTDB Status
1 | (1/1) Accurately ripped
2 | (1/1) Accurately ripped
3 | (1/1) Accurately ripped
4 | (1/1) Accurately ripped
5 | (1/1) Accurately ripped
6 | (1/1) Accurately ripped
7 | (1/1) Accurately ripped
8 | (1/1) Accurately ripped
9 | (1/1) Accurately ripped
10 | (1/1) Accurately ripped
11 | (1/1) Accurately ripped
12 | (1/1) Accurately ripped
13 | (1/1) Accurately ripped
14 | (1/1) Accurately ripped
15 | (1/1) Accurately ripped
16 | (1/1) Accurately ripped
17 | (1/1) Accurately ripped
18 | (1/1) Accurately ripped
19 | (1/1) Accurately ripped
20 | (1/1) Accurately ripped
21 | (1/1) Accurately ripped
22 | (1/1) Accurately ripped


==== Log checksum 18A86AD05062C3410AD86AD82CBF220A56F763DAC58DDDFD6A8D85315DE2F571 ====

Exact Audio Copy V1.3 from 2. September 2016

EAC extraction logfile from 7. October 2017, 12:57

Fleetwood Mac / Love That Burnst ~ The Blues Years [Disc Two]

Used drive : ATAPI iHAS122 C Adapter: 1 ID: 0

Read mode : Secure
Utilize accurate stream : Yes
Defeat audio cache : Yes
Make use of C2 pointers : No

Read offset correction : 6
Overread into Lead-In and Lead-Out : No
Fill up missing offset samples with silence : Yes
Delete leading and trailing silent blocks : No
Null samples used in CRC calculations : Yes
Used interface : Native Win32 interface for Win NT & 2000

Used output format : Internal WAV Routines
Sample format : 44.100 Hz; 16 Bit; Stereo


TOC of the extracted CD

Track | Start | Length | Start sector | End sector
––––––––––––––––––––––––––––-
1 | 0:00.00 | 2:48.00 | 0 | 12599
2 | 2:48.00 | 5:11.52 | 12600 | 35976
3 | 7:59.52 | 4:25.65 | 35977 | 55916
4 | 12:25.42 | 7:12.42 | 55917 | 88358
5 | 19:38.09 | 7:49.06 | 88359 | 123539
6 | 27:27.15 | 15:28.31 | 123540 | 193170
7 | 42:55.46 | 7:42.46 | 193171 | 227866
8 | 50:38.17 | 7:45.59 | 227867 | 262800
9 | 58:24.01 | 16:11.62 | 262801 | 335687


Range status and errors

Selected range

Filename C:\Users\London\Desktop\Fleetwood Mac - Love That Burnst ~ The Blues Years [Disc Two].wav

Peak level 100.0 %
Extraction speed 9.7 X
Range quality 100.0 %
Test CRC 3C24C9E1
Copy CRC 3C24C9E1
Copy OK

No errors occurred


AccurateRip summary

Track 1 accurately ripped (confidence 1) [610CF599] (AR v2)
Track 2 accurately ripped (confidence 1) [F396D0AF] (AR v2)
Track 3 accurately ripped (confidence 1) [6CFC3914] (AR v2)
Track 4 accurately ripped (confidence 1) [041C5855] (AR v2)
Track 5 accurately ripped (confidence 1) [F6DE52B9] (AR v2)
Track 6 accurately ripped (confidence 1) [920A6670] (AR v2)
Track 7 accurately ripped (confidence 1) [B0B39F5F] (AR v2)
Track 8 accurately ripped (confidence 1) [F37A27A8] (AR v2)
Track 9 accurately ripped (confidence 1) [FA186ACF] (AR v2)

All tracks accurately ripped

End of status report

–– CUETools DB Plugin V2.1.6

[CTDB TOCID: _C0D7syE.krCYTd86d8BY2Ot8t8-] disk not present in database
Submit result: _C0D7syE.krCYTd86d8BY2Ot8t8- has been uploaded


==== Log checksum 8E93FA86CDA20FD8E597884E05E7C1160908F77B632E24B691699DF69473BD65 ====



Fleetwood Mac - Love That Burnst - The Blues Years (2017)

Thanks to the Original ripper London !