Subcategories

Frank Zappa & The Mothers Of Invention - Absolutely Free (1967) {1995 Ryko Remaster}

Posted By: ruskaval
Frank Zappa & The Mothers Of Invention - Absolutely Free (1967) {1995 Ryko Remaster}

Frank Zappa & The Mothers Of Invention - Absolutely Free (1967) {1995 Ryko Remaster}
EAC rip (secure mode) | FLAC+CUE+LOG -> 272 Mb | MP3 @320 -> 101 Mb
Full Artwork @ 300 dpi (png) -> 13 Mb
© 1995 Rykodisc / The Zappa Family Trust | RCD 10502
Rock / Experimental Rock


Frank Zappa & The Mothers Of Invention - Absolutely Free (1967) {1995 Ryko Remaster}

This packagepackage contains the complete libretto (clean American version), plus two additional tracks not included on the original release.

Before becoming obsessed with sex, politics and the Synclavier, Frank Zappa was a performer of great whimsy, who here, on his second album, was singing about such topics as fruits and vegetables while also displaying a developing critical attitude toward American social mores. Dense with musical references from "Louie Louie" to Holst's "The Planets," ABSOLUTELY FREE is a testament to the young Zappa's awesome musical breadth. These Mothers of Invention lack the precision of Zappa's later combos, but give a firm R&B grounding to his experimentation. ABSOLUTELY FREE includes the classic "Brown Shoes Don't Make It," a biting parody of suburban American values, along with forgotten masterpieces like "Call Any Vegetable," a tune pointing out the ease with which we can become in tune with our little green buddies.
tracklist
Suite No. 1: “Absolutely Free” (1st in a Series of Underground Oratorios)

1. “Plastic People” – 3:42
2. “The Duke of Prunes” – 2:13
3. “Amnesia Vivace” – 1:01
4. “The Duke Regains His Chops” – 1:52
5. “Call Any Vegetable” – 2:15
6. “Invocation & Ritual Dance of the Young Pumpkin” – 7:00
7. “Soft-Sell Conclusion” – 1:40
8. “Big Leg Emma”* – 2:31
9. “Why Don’tcha Do Me Right?”* – 2:37

Suite No. 2: “The M.O.I. American Pageant” (2nd in a Series of Underground Oratorios)

10. “America Drinks” – 1:52
11. “Status Back Baby” – 2:54
12. “Uncle Bernie’s Farm” – 2:10
13. “Son of Suzy Creamcheese” – 1:34
14. “Brown Shoes Don’t Make It” – 7:30
15. “America Drinks and Goes Home” – 2:46

Frank Zappa & The Mothers Of Invention - Absolutely Free (1967) {1995 Ryko Remaster}

Exact Audio Copy V0.99 prebeta 5 from 4. May 2009

EAC extraction logfile from 10. July 2009, 22:22

Frank Zappa & The Mothers Of Invention / Absolutely Free

Used drive : PIONEER DVD-RW DVR-111L Adapter: 0 ID: 0

Read mode : Secure
Utilize accurate stream : Yes
Defeat audio cache : Yes
Make use of C2 pointers : No

Read offset correction : 48
Overread into Lead-In and Lead-Out : No
Fill up missing offset samples with silence : Yes
Delete leading and trailing silent blocks : No
Null samples used in CRC calculations : Yes
Used interface : Native Win32 interface for Win NT & 2000
Gap handling : Appended to previous track

Used output format : User Defined Encoder
Selected bitrate : 1024 kBit/s
Quality : High
Add ID3 tag : No
Command line compressor : C:\Program Files\FLAC\flac.exe
Additional command line options : -8 -V -T "ARTIST=%a" -T "TITLE=%t" -T "ALBUM=%g" -T "DATE=%y" -T "TRACKNUMBER=%n" -T "GENRE=%m" -T "COMMENT=EAC FLAC -8" %s


TOC of the extracted CD

Track | Start | Length | Start sector | End sector
––––––––––––––––––––––––––––-
1 | 0:00.00 | 3:42.37 | 0 | 16686
2 | 3:42.37 | 2:13.25 | 16687 | 26686
3 | 5:55.62 | 1:01.28 | 26687 | 31289
4 | 6:57.15 | 1:52.70 | 31290 | 39759
5 | 8:50.10 | 2:15.15 | 39760 | 49899
6 | 11:05.25 | 7:00.22 | 49900 | 81421
7 | 18:05.47 | 1:40.45 | 81422 | 88966
8 | 19:46.17 | 2:31.23 | 88967 | 100314
9 | 22:17.40 | 2:37.07 | 100315 | 112096
10 | 24:54.47 | 1:53.08 | 112097 | 120579
11 | 26:47.55 | 2:54.07 | 120580 | 133636
12 | 29:41.62 | 2:10.60 | 133637 | 143446
13 | 31:52.47 | 1:34.10 | 143447 | 150506
14 | 33:26.57 | 7:30.10 | 150507 | 184266
15 | 40:56.67 | 2:45.10 | 184267 | 196651


Track 1

Filename C:\Frank Zappa & The Mothers Of Invention - Absolutely Free (1967)\01 - Plastic People.wav

Pre-gap length 0:00:02.00

Peak level 98.8 %
Track quality 99.9 %
Test CRC 8335856E
Copy CRC 8335856E
Accurately ripped (confidence 22) [7C835C7F]
Copy OK

Track 2

Filename C:\Frank Zappa & The Mothers Of Invention - Absolutely Free (1967)\02 - The Duke of Prunes.wav

Peak level 81.7 %
Track quality 100.0 %
Test CRC 24F326E4
Copy CRC 24F326E4
Accurately ripped (confidence 21) [9E699360]
Copy OK

Track 3

Filename C:\Frank Zappa & The Mothers Of Invention - Absolutely Free (1967)\03 - Amnesia Vivace.wav

Peak level 89.6 %
Track quality 100.0 %
Test CRC A157CD17
Copy CRC A157CD17
Accurately ripped (confidence 21) [7B936DFF]
Copy OK

Track 4

Filename C:\Frank Zappa & The Mothers Of Invention - Absolutely Free (1967)\04 - The Duke Regains His Chops.wav

Peak level 98.8 %
Track quality 100.0 %
Test CRC A1FAE13F
Copy CRC A1FAE13F
Accurately ripped (confidence 21) [C390020F]
Copy OK

Track 5

Filename C:\Frank Zappa & The Mothers Of Invention - Absolutely Free (1967)\05 - Call Any Vegetable.wav

Peak level 94.1 %
Track quality 100.0 %
Test CRC 07053D27
Copy CRC 07053D27
Accurately ripped (confidence 22) [6BCDFB77]
Copy OK

Track 6

Filename C:\Frank Zappa & The Mothers Of Invention - Absolutely Free (1967)\06 - Invocation & Ritual Dance of the Young Pumpkin.wav

Peak level 98.0 %
Track quality 100.0 %
Test CRC A4D94E93
Copy CRC A4D94E93
Accurately ripped (confidence 21) [86290515]
Copy OK

Track 7

Filename C:\Frank Zappa & The Mothers Of Invention - Absolutely Free (1967)\07 - Soft-Sell Conclusion.wav

Peak level 69.3 %
Track quality 99.8 %
Test CRC 507BC81C
Copy CRC 507BC81C
Accurately ripped (confidence 21) [9F5D64C1]
Copy OK

Track 8

Filename C:\Frank Zappa & The Mothers Of Invention - Absolutely Free (1967)\08 - Big Leg Emma.wav

Peak level 98.8 %
Track quality 100.0 %
Test CRC 57BCA46E
Copy CRC 57BCA46E
Accurately ripped (confidence 21) [3DAB769C]
Copy OK

Track 9

Filename C:\Frank Zappa & The Mothers Of Invention - Absolutely Free (1967)\09 - Why Don'tcha Do Me Right .wav

Peak level 98.8 %
Track quality 100.0 %
Test CRC DD704836
Copy CRC DD704836
Accurately ripped (confidence 21) [88462A93]
Copy OK

Track 10

Filename C:\Frank Zappa & The Mothers Of Invention - Absolutely Free (1967)\10 - America Drinks.wav

Peak level 84.1 %
Track quality 100.0 %
Test CRC DF58652D
Copy CRC DF58652D
Accurately ripped (confidence 21) [823B0FF9]
Copy OK

Track 11

Filename C:\Frank Zappa & The Mothers Of Invention - Absolutely Free (1967)\11 - Status Back Baby.wav

Peak level 88.3 %
Track quality 100.0 %
Test CRC AE0241B7
Copy CRC AE0241B7
Accurately ripped (confidence 21) [8241FBC7]
Copy OK

Track 12

Filename C:\Frank Zappa & The Mothers Of Invention - Absolutely Free (1967)\12 - Uncle Bernie's Farm.wav

Peak level 82.9 %
Track quality 100.0 %
Test CRC 7A6CF116
Copy CRC 7A6CF116
Accurately ripped (confidence 21) [1CA74D35]
Copy OK

Track 13

Filename C:\Frank Zappa & The Mothers Of Invention - Absolutely Free (1967)\13 - Son of Suzy Creamcheese.wav

Peak level 77.7 %
Track quality 100.0 %
Test CRC E3044199
Copy CRC E3044199
Accurately ripped (confidence 21) [9CC12B4D]
Copy OK

Track 14

Filename C:\Frank Zappa & The Mothers Of Invention - Absolutely Free (1967)\14 - Brown Shoes Don't Make it.wav

Peak level 95.7 %
Track quality 100.0 %
Test CRC A21873A5
Copy CRC A21873A5
Accurately ripped (confidence 20) [ADE2402D]
Copy OK

Track 15

Filename C:\Frank Zappa & The Mothers Of Invention - Absolutely Free (1967)\15 - America Drinks & Goes Home.wav

Peak level 81.2 %
Track quality 100.0 %
Test CRC 7B0CE126
Copy CRC 7B0CE126
Accurately ripped (confidence 21) [F4A4EE32]
Copy OK


All tracks accurately ripped

No errors occurred

End of status report

FSonic Linkz

or

FileServe Linkz

p.s. the files are interchangeable…

pass: ruskaval

No Mirror, plz!