Subcategories

Frank Zappa - Jazz From Hell (1986) {1995 Rykodisc Remaster} (Re-Up)

Posted By: ruskaval
Frank Zappa - Jazz From Hell (1986) {1995 Rykodisc Remaster} (Re-Up)

Frank Zappa - Jazz From Hell (1986) {1995 Rykodisc Remaster}
EAC rip | FLAC (image)+CUE+LOG -> 223Mb | MP3 @320 -> 80Mb
34:37 | Full artwork @ 400 dpi -> 27Mb
Rykodisc / (Frank Zappa, November 1986)

Perhaps the first INSTRUMENTAL album to be removed from Wal-Mart's shelves for unacceptable lyric content, this was also 1987's Grammy winner for Best Rock Instrumental Album. Having gotten his hands on a Synclavier for the first time, FZ was finally able to compose any damn thing he pleased without having to worry about whether human players would be able to handle it. Along with fiendishly complicated pieces like "While You Were Art II" and the title track, the result was also some fun-and-frantic moments like "Night School" and "G-Spot Tornado." For anti-electronic purists there's also "St. Etienne," a majestic guitar piece recorded live in 1984. ©Ryko

tracklist
1. Night School 4:50
2. The Beltway Bandits 3:26
3. While You Were Art II 7:18
4. Jazz From Hell 3:00
5. G-Spot Tornado 3:17
6. Damp Ankles 3:45
7. St. Etienne 6:26
8. Massaggio Galore 2:31

Frank Zappa - Jazz From Hell (1986) {1995 Rykodisc Remaster} (Re-Up)


Exact Audio Copy V0.99 prebeta 1 from 25. May 2007

EAC extraction logfile from 7. July 2007, 13:34

Frank Zappa / Jazz From Hell

Used drive : HL-DT-STRW/DVD GCC-4520B Adapter: 0 ID: 0

Read mode : Secure
Utilize accurate stream : Yes
Defeat audio cache : Yes
Make use of C2 pointers : No

Read offset correction : 0
Overread into Lead-In and Lead-Out : No
Fill up missing offset samples with silence : Yes
Delete leading and trailing silent blocks : No
Used interface : Installed external ASPI interface

Used output format : Internal WAV Routines
Sample format : 44.100 Hz; 16 Bit; Stereo


TOC of the extracted CD

Track | Start | Length | Start sector | End sector
––––––––––––––––––––––––––––-
1 | 0:00.00 | 4:50.02 | 0 | 21751
2 | 4:50.02 | 3:26.13 | 21752 | 37214
3 | 8:16.15 | 7:18.00 | 37215 | 70064
4 | 15:34.15 | 3:00.40 | 70065 | 83604
5 | 18:34.55 | 3:17.37 | 83605 | 98416
6 | 21:52.17 | 3:45.08 | 98417 | 115299
7 | 25:37.25 | 6:26.72 | 115300 | 144321
8 | 32:04.22 | 2:31.55 | 144322 | 155701


Range status and errors

Selected range

Filename D:\Downloads\fz_hell\Frank Zappa - Jazz From Hell.wav

Peak level 100.0 %
Range quality 100.0 %
Copy CRC 5F86FC63
Copy OK

No errors occured

End of status report


FileSonic Linkz

or

FileServe Linkz

p.s. the files are interchangeable…

pass: ruskaval

No Mirror, plz!