Subcategories

The Fumes - Knock Out The Axis

Posted By: Toxxy
The Fumes - Knock Out The Axis

The Fumes - Knock Out The Axis
Year & Label: 1993 eMpTy Records | CD#: MT-173
FLAC-5 (image) | Mp3 VBR-0 (tracks) | Artwork (JPG, 400 dpi) | File-hosts: HF, FF & RS
Punk'n'Roll | FLAC: 231 MB | Mp3: 62 MB | Artwork: 11 MB | 5% WinRAR Recovery

EAC Secure-rip with LOG+CUE+COVERS | Source: My CD-collection

The Fumes - Knock Out The Axis


This is NOT the Sydney based duo with the same band-name but Spokane's "Dragster Punk Originators".

***

Spokane's Fumes belt out fucked up punk. This debut is definitely raw enough to annoy any evil neighbor at any time of the day or night.


BIO:

The world famous Fumes started out in 1989 in a garage on Spokane’s South Hill, a real stinky Garage so the naming of the band was as simple as the smell and the Fumes were born. Since those early days the Fumes have gone on to huge and thrilling heights. They were deemed the Dragster punk originators playing punk rock and roll at warp speeds and created a new brand of music that a whole host of others picked up on and kept the music pumping since. Fumes music is currently on Empty Records out of Portland Or. (famous 90’s Seattle Label) and can also be found on Scooch Pooch.

The Fumes have played with an amazing list of bands that is numbing to think about: Rev. Hortant Heat, Supersuckers, Mudhoney, Deftones, the Derelicts, Rocket from the Crypt, At the Drive In, The Meanies, Christ on a Crutch, Bloodloss, Bad Brains, The Offspring, The Gits, Gas Huffer, Zeke, Gutter Mouth, REO Speed Dealer, The Motards, Steel Wool, Sicko, Moral Crux, Zip Gun, Von Zippers, Cosmic Psychos, Poison Idea, Coffin Break, Sinister Six, New Bomb Turks, The Smugglers, AFI, Girl Trouble, DOA, No Means No, Jack Knife, the Humpers, Seaweed.

The Fumes: Rob and Norm were playing in the Blowouts, Dee is hanging loose and had been playing in DFA. Gus passed away this last spring 2006 and we will miss him dearly. Joining the Fumes Bill Gibbs on drums (Bill has played with Mang, Big Comb just to also name a few)also currently plays in Lalah's Drink and the Foxy Sluts. –-myspace-com-thefumes

The Fumes

Dee Farmin (vocals)
Norm Gall (guitar)
Robert Charles Heyenrath (bass)
Lee Fumin, Gus Trap (drums)


Track List:

01. Empty Cell
02. Devil's Drag Strip
03. Poploaded
04. Play Boy
05. Flunkie
06. Tidy Bowl Man
07. Old's 454
08. Oil
09. Life Of Lies
10. Television Vision
11. El Dopa
12. Unglued
13. Talking To Satan
14. Black Top
15. Alcoholiday
16. Pot Belly

Exact Audio Copy V0.99 prebeta 5 from 4. May 2009

EAC extraction logfile from 9. December 2009, 15:17

The Fumes / Knock Out The Axis

Used drive : PLEXTOR DVDR PX-880U Adapter: 0 ID: 3

Read mode : Secure
Utilize accurate stream : Yes
Defeat audio cache : No
Make use of C2 pointers : Yes

Read offset correction : 6
Overread into Lead-In and Lead-Out : No
Fill up missing offset samples with silence : Yes
Delete leading and trailing silent blocks : No
Null samples used in CRC calculations : Yes
Used interface : Native Win32 interface for Win NT & 2000

Used output format : User Defined Encoder
Selected bitrate : 768 kBit/s
Quality : High
Add ID3 tag : No
Command line compressor : C:\Exact Audio Copy\FLAC\FLAC.EXE
Additional command line options : -V -5 -T "artist=%a" -T "title=%t" -T "album=%g" -T "date=%y" -T "tracknumber=%n" -T "genre=%m" %s


TOC of the extracted CD

Track | Start | Length | Start sector | End sector
––––––––––––––––––––––––––––-
1 | 0:00.00 | 1:48.70 | 0 | 8169
2 | 1:48.70 | 1:53.25 | 8170 | 16669
3 | 3:42.20 | 1:33.05 | 16670 | 23649
4 | 5:15.25 | 1:19.50 | 23650 | 29624
5 | 6:35.00 | 1:33.50 | 29625 | 36649
6 | 8:08.50 | 1:51.22 | 36650 | 44996
7 | 9:59.72 | 1:26.50 | 44997 | 51496
8 | 11:26.47 | 1:18.40 | 51497 | 57386
9 | 12:45.12 | 2:05.03 | 57387 | 66764
10 | 14:50.15 | 2:13.32 | 66765 | 76771
11 | 17:03.47 | 2:28.40 | 76772 | 87911
12 | 19:32.12 | 2:14.45 | 87912 | 98006
13 | 21:46.57 | 2:01.48 | 98007 | 107129
14 | 23:48.30 | 2:48.37 | 107130 | 119766
15 | 26:36.67 | 2:55.35 | 119767 | 132926
16 | 29:32.27 | 2:12.08 | 132927 | 142834


Range status and errors

Selected range

Filename E:\The Fumes - Knock Out The Axis.wav

Peak level 100.0 %
Range quality 100.0 %
Test CRC 80084B2A
Copy CRC 80084B2A
Copy OK

No errors occurred


AccurateRip summary

Track 1 accurately ripped (confidence 1) [411CBF66]
Track 2 accurately ripped (confidence 1) [A5897CD7]
Track 3 accurately ripped (confidence 1) [B0FF809A]
Track 4 accurately ripped (confidence 1) [E8847280]
Track 5 accurately ripped (confidence 1) [442E652E]
Track 6 accurately ripped (confidence 1) [0E0F796B]
Track 7 accurately ripped (confidence 1) [F4905E81]
Track 8 accurately ripped (confidence 1) [8C511E27]
Track 9 accurately ripped (confidence 1) [CF4B7B8E]
Track 10 accurately ripped (confidence 1) [4FF62352]
Track 11 accurately ripped (confidence 1) [83BAD589]
Track 12 accurately ripped (confidence 1) [47240D9D]
Track 13 accurately ripped (confidence 1) [2BD50C08]
Track 14 accurately ripped (confidence 1) [5A39EDA9]
Track 15 accurately ripped (confidence 1) [C138BEC0]
Track 16 accurately ripped (confidence 1) [2B19B084]

All tracks accurately ripped

End of status report







To be posted soon: "The Fumes - Self-Appointed Guardian of the Machine"

***