Subcategories
Tags
Language
Tags

Gabrielle Aplin - Dear Happy (2020)

Posted By: Domestos
Gabrielle Aplin - Dear Happy (2020)

Gabrielle Aplin - Dear Happy (2020)
EAC Rip | FLAC (tracks+.cue, log) ~ 307.85 Mb | 47:05 | Cover
Pop | Label: Never Fade Records - NF40CD

Dear Happy is the third studio album by English singer-songwriter Gabrielle Aplin. It was released on 17 January 2020, through Aplin's own label Never Fade Records, and distribution group AWAL. Dear Happy marks Aplin's first studio-length release since her second studio album Light Up the Dark (2015). The album was announced through Aplin's Twitter and website on 10 September 2019. Aplin will tour in support of the record in early 2020.



Track List:
01. Until the Sun Comes Up (3:11)
02. Invisible (3:56)
03. One of Those Days (4:03)
04. Kintsugi (2:56)
05. Strange (2:43)
06. My Mistake (4:25)
07. Like You Say You Do (3:07)
08. Losing Me (feat. JP Cooper) (3:01)
09. So Far So Good (3:18)
10. Nothing Really Matters (2:45)
11. Magic (4:05)
12. Love Back (2:46)
13. Miss You (3:17)
14. Dear Happy (3:28)

Exact Audio Copy V1.3 from 2. September 2016

EAC extraction logfile from 22. January 2020, 13:08

Gabrielle Aplin / Dear Happy

Used drive : HL-DT-STDVDRAM GH24NSD1 Adapter: 1 ID: 0

Read mode : Secure
Utilize accurate stream : Yes
Defeat audio cache : Yes
Make use of C2 pointers : No

Read offset correction : 6
Overread into Lead-In and Lead-Out : No
Fill up missing offset samples with silence : Yes
Delete leading and trailing silent blocks : No
Null samples used in CRC calculations : Yes
Used interface : Native Win32 interface for Win NT & 2000
Gap handling : Appended to previous track

Used output format : User Defined Encoder
Selected bitrate : 1024 kBit/s
Quality : High
Add ID3 tag : No
Command line compressor : C:\Program Files (x86)\Exact Audio Copy\Flac\flac.exe
Additional command line options : -8 -V -T "ARTIST=%artist%" -T "TITLE=%title%" -T "ALBUM=%albumtitle%" -T "DATE=%year%" -T "TRACKNUMBER=%tracknr%" -T "GENRE=%genre%" -T "PERFORMER=%albuminterpret%" -T "COMPOSER=%composer%" %haslyrics%–tag-from-file=LYRICS="%lyricsfile%"%haslyrics% -T "ALBUMARTIST=%albumartist%" -T "DISCNUMBER=%cdnumber%" -T "TOTALDISCS=%totalcds%" -T "TOTALTRACKS=%numtracks%" -T "COMMENT=%comment%" %source% -o %dest%


TOC of the extracted CD

Track | Start | Length | Start sector | End sector
––––––––––––––––––––––––––––-
1 | 0:00.00 | 3:10.73 | 0 | 14322
2 | 3:10.73 | 3:55.71 | 14323 | 32018
3 | 7:06.69 | 4:03.38 | 32019 | 50281
4 | 11:10.32 | 2:56.00 | 50282 | 63481
5 | 14:06.32 | 2:43.28 | 63482 | 75734
6 | 16:49.60 | 4:25.31 | 75735 | 95640
7 | 21:15.16 | 3:07.25 | 95641 | 109690
8 | 24:22.41 | 3:01.52 | 109691 | 123317
9 | 27:24.18 | 3:17.68 | 123318 | 138160
10 | 30:42.11 | 2:45.00 | 138161 | 150535
11 | 33:27.11 | 4:05.33 | 150536 | 168943
12 | 37:32.44 | 2:46.39 | 168944 | 181432
13 | 40:19.08 | 3:17.39 | 181433 | 196246
14 | 43:36.47 | 3:28.17 | 196247 | 211863


Track 1

Filename E:\WHAT.CD\000TEMP\Gabrielle Aplin - Dear Happy (2019) [FLAC]\01 - Until The Sun Comes Up.wav

Pre-gap length 0:00:02.00

Peak level 94.9 %
Extraction speed 4.1 X
Track quality 100.0 %
Test CRC C30677C2
Copy CRC C30677C2
Track not present in AccurateRip database
Copy OK

Track 2

Filename E:\WHAT.CD\000TEMP\Gabrielle Aplin - Dear Happy (2019) [FLAC]\02 - Invisible.wav

Peak level 94.9 %
Extraction speed 4.6 X
Track quality 100.0 %
Test CRC 048E6488
Copy CRC 048E6488
Track not present in AccurateRip database
Copy OK

Track 3

Filename E:\WHAT.CD\000TEMP\Gabrielle Aplin - Dear Happy (2019) [FLAC]\03 - One Of Those Days.wav

Peak level 94.9 %
Extraction speed 5.1 X
Track quality 100.0 %
Test CRC FFC33701
Copy CRC FFC33701
Track not present in AccurateRip database
Copy OK

Track 4

Filename E:\WHAT.CD\000TEMP\Gabrielle Aplin - Dear Happy (2019) [FLAC]\04 - Kintsugi.wav

Peak level 94.9 %
Extraction speed 5.2 X
Track quality 100.0 %
Test CRC 6506F545
Copy CRC 6506F545
Track not present in AccurateRip database
Copy OK

Track 5

Filename E:\WHAT.CD\000TEMP\Gabrielle Aplin - Dear Happy (2019) [FLAC]\05 - Strange.wav

Peak level 94.9 %
Extraction speed 5.3 X
Track quality 100.0 %
Test CRC ED1208FB
Copy CRC ED1208FB
Track not present in AccurateRip database
Copy OK

Track 6

Filename E:\WHAT.CD\000TEMP\Gabrielle Aplin - Dear Happy (2019) [FLAC]\06 - My Mistake.wav

Peak level 98.8 %
Extraction speed 6.1 X
Track quality 100.0 %
Test CRC C7452ACE
Copy CRC C7452ACE
Track not present in AccurateRip database
Copy OK

Track 7

Filename E:\WHAT.CD\000TEMP\Gabrielle Aplin - Dear Happy (2019) [FLAC]\07 - Like You Say You Do.wav

Peak level 94.9 %
Extraction speed 6.2 X
Track quality 100.0 %
Test CRC EFEF7400
Copy CRC EFEF7400
Track not present in AccurateRip database
Copy OK

Track 8

Filename E:\WHAT.CD\000TEMP\Gabrielle Aplin - Dear Happy (2019) [FLAC]\08 - Losing Me.wav

Peak level 94.9 %
Extraction speed 6.3 X
Track quality 100.0 %
Test CRC B3BD8503
Copy CRC B3BD8503
Track not present in AccurateRip database
Copy OK

Track 9

Filename E:\WHAT.CD\000TEMP\Gabrielle Aplin - Dear Happy (2019) [FLAC]\09 - So Far So Good.wav

Peak level 94.9 %
Extraction speed 6.7 X
Track quality 100.0 %
Test CRC F0BF00F7
Copy CRC F0BF00F7
Track not present in AccurateRip database
Copy OK

Track 10

Filename E:\WHAT.CD\000TEMP\Gabrielle Aplin - Dear Happy (2019) [FLAC]\10 - Nothing Really Matters.wav

Peak level 94.9 %
Extraction speed 5.6 X
Track quality 99.9 %
Test CRC 6CBAFFAF
Copy CRC 6CBAFFAF
Track not present in AccurateRip database
Copy OK

Track 11

Filename E:\WHAT.CD\000TEMP\Gabrielle Aplin - Dear Happy (2019) [FLAC]\11 - Magic.wav

Peak level 94.9 %
Extraction speed 7.3 X
Track quality 100.0 %
Test CRC 82B875AC
Copy CRC 82B875AC
Track not present in AccurateRip database
Copy OK

Track 12

Filename E:\WHAT.CD\000TEMP\Gabrielle Aplin - Dear Happy (2019) [FLAC]\12 - Love Back.wav

Peak level 94.9 %
Extraction speed 7.1 X
Track quality 100.0 %
Test CRC 938236E7
Copy CRC 938236E7
Track not present in AccurateRip database
Copy OK

Track 13

Filename E:\WHAT.CD\000TEMP\Gabrielle Aplin - Dear Happy (2019) [FLAC]\13 - Miss You.wav

Peak level 94.9 %
Extraction speed 6.4 X
Track quality 99.9 %
Test CRC 73370ED8
Copy CRC 73370ED8
Track not present in AccurateRip database
Copy OK

Track 14

Filename E:\WHAT.CD\000TEMP\Gabrielle Aplin - Dear Happy (2019) [FLAC]\14 - Dear Happy.wav

Peak level 94.9 %
Extraction speed 7.8 X
Track quality 100.0 %
Test CRC D9E1A62E
Copy CRC D9E1A62E
Track not present in AccurateRip database
Copy OK


None of the tracks are present in the AccurateRip database

No errors occurred

End of status report

–– CUETools DB Plugin V2.1.6

[CTDB TOCID: 7LssMPHtxoFBkLsNQx8bJ4wLLTU-] found
Submit result: 7LssMPHtxoFBkLsNQx8bJ4wLLTU- has been confirmed
Track | CTDB Status
1 | (9/9) Accurately ripped
2 | (9/9) Accurately ripped
3 | (9/9) Accurately ripped
4 | (9/9) Accurately ripped
5 | (9/9) Accurately ripped
6 | (9/9) Accurately ripped
7 | (9/9) Accurately ripped
8 | (9/9) Accurately ripped
9 | (9/9) Accurately ripped
10 | (9/9) Accurately ripped
11 | (9/9) Accurately ripped
12 | (9/9) Accurately ripped
13 | (9/9) Accurately ripped
14 | (9/9) Accurately ripped


==== Log checksum 24BB8E4D69FA4C9D0BA23217D9B7509D4396A76F31E28E1327795CB8F1034B3B ====

All thanks go to the Original ripper (unknown)

More Music in My Blog
Follow My RSS Channel