Tags
Language
Tags

Gary Burton - Conception (2014) {2CD Set, El Records ACMEMD277CD rec 1960-1962}

Posted By: ruskaval
Gary Burton - Conception (2014) {2CD Set, El Records ACMEMD277CD rec 1960-1962}

Gary Burton - Conception (2014) {2CD Set, El Records ACMEMD277CD rec 1960-1962}
EAC rip (secure mode) | FLAC (tracks)+CUE+LOG -> 992 Mb | MP3 @320 -> 375 Mb
Full Artwork @ 600 dpi (jpg) -> 347 Mb | 5% repair rar
© 1960-62, 2014 Él Records / Cherry Red Records | ACMEMD277CD
Jazz / Bop / Post Bop / Vibes

• Gary Burton, the astonishing virtuoso of the vibraphone. A child prodigy who achieved renown among musicians who marveled at his dazzling technique and originality of conception. Throughout a long career that traversed Nashville, George Shearing, Stan Getz, psychedelia, improvisation, free jazz, jazz rock and fusion, he retained a creative disposition; looking always to broaden his musical horizon and to push the boundaries of musical convention. Burton's innovations include the revival and adaptation of the use of a four mallet technique which enabled him to significantly increase the scope of his sound.

• That the iconic countrypolitan guitarist and producer Chet Atkins was responsible for signing Burton to his first recording contract, is testament to the universality of his musical appeal.

Gary Burton - Conception (2014) {2CD Set, El Records ACMEMD277CD rec 1960-1962}


• This two cd set, comprises, Gary's 1961 debut LP as leader, New Vibe Man In Town (with Gene Cherico and Dave Brubeck's drummer Joe Morello), the second album, Who is Gary Burton? (with Chris Swansen, Phil Woods, Bob Brookmeyer, Clark Terry., Morello, John Neves and Tommy Flanagan) that followed a year later, and historic sessions of the same era in which the vibist participated: The Nashville All-Stars' After The Riot at Newport, the impromptu live date recorded on the back porch of a rented mansion after the group of eight Nashville musicians, including the guitarists Chet Atkins and Hank Garland, the pianist Floyd Cramer and the 17 year-old Burton, had arrived at the Rhode Island festival at which they were due to appear to find the event in disarray because of an unruly crowd. Another auspicious occasion, and the fourth album of this edition, is Hank Garland's superlative Jazz Winds From A New Direction, the jazz debut of this most predominant of all Nashville session guitarists. Garland's group consists of Burton, bassist Joe Benjamin and Joe Morello. Burton and Garland are in perfect, at times, awe-inspiring synchronicity on what has come to be regarded as one of the definitive jazz guitar statements.

• Completing the package is Floyd Cramer's million-selling single, Last Date, on which Gary provides a simple accompaniment. The record reached number two on the Billboard chart. The single that kept it from the top spot was Elvis Presley's Are You Lonesome Tonight.
Gary Burton - Conception (2014) {2CD Set, El Records ACMEMD277CD rec 1960-1962}


Personnel & tracklist:
CD1
GARY BURTON: WHO IS GARY BURTON?

01. Storm
02. I’ve Just Seen Her
03. Fly Time Fly (Sigh)
04. Conception
05. Get Away Blues
06. My Funny Valentine
07. One Note

Gary Burton – Vibes
Clark Terry – Trumpet
Bob Brookmeyer – Valve trombone
Phil Woods - Alto sax
Tommy Flanagan – Piano
John Neves – String bass
Joe Morello, Chris Swansen - Drums

HANK GARLAND WITH THE ALL-STARS: JAZZ WINDS FROM A NEW DIRECTION
08. All the Things You Are
09. Three-Four, The Blues
10. Move
11. Always
12. Riot-Chous
13. Relaxin’

Hank Garland – Guitar
Gary Burton – Vibes
Joe Benjamin – Bass
Joe Morello - Drums

HANK GARLAND'S QUINTET: SELECTIONS FROM SUBTLE SWING
14. It’s Love, Of Course
15. Not for Me
16. Pop Goes the Weasel
17. Unless You’re in Love
18. Rainy Afternoon

Hank Garland - Guitar
Gary Burton – Vibes
Bob Moore – Bass
Bill Pursell – Piano
Doug Kirkham - Drums

Gary Burton - Conception (2014) {2CD Set, El Records ACMEMD277CD rec 1960-1962}


CD2
GARY BURTON: NEW VIBE MAN IN TOWN

01. Joy Spring
02. Over the Rainbow
03. Like Someone in Love
04. Minor Blues
05. Our Waltz
06. So Many Things
07. Sir John
08. You Stepped out of a Dream

Gary Burton - Vibes
Gene Cherico - Bass
Joe Morello - Drums

THE NASHVILLE ALL-STARS: AFTER THE RIOT AT NEWPORT
09. Relaxin’
10. Nashville to Newport
11. Opus de Funk
12. ‘S Wonderful
13. Round Midnight
14. Frankie and Johnny
15. Riot-Chous

FLOYD CRAMER
16. Last Date

Buddy Harman - Drums
Chet Atkins – Guitar (tracks 10, 14)
Boots Randolph – Alto sax, tenor sax (tracks 9-11, 15)
Gary Burton – Vibes (tracks 9-12, 15, 16)
Hank Garland – Guitar (tracks 9-12, 15)
Brenton Banks – Piano, violin (tracks 9, 11, 12, 13, 15)
Floyd Cramer – Piano (tracks 10, 11, 14, 16)
Bob Moore – Bass (tracks 9, 11-16)
Anita Kerr Singers – Vocal chorus (track 16)

Gary Burton - Conception (2014) {2CD Set, El Records ACMEMD277CD rec 1960-1962}


Exact Audio Copy V1.1 from 23. June 2015

EAC extraction logfile from 5. June 2016, 20:12

Gary Burton / Conception

Used drive : MATSHITADVD+-RW SW830 Adapter: 1 ID: 0

Read mode : Secure
Utilize accurate stream : Yes
Defeat audio cache : Yes
Make use of C2 pointers : No

Read offset correction : 6
Overread into Lead-In and Lead-Out : No
Fill up missing offset samples with silence : Yes
Delete leading and trailing silent blocks : No
Null samples used in CRC calculations : Yes
Used interface : Native Win32 interface for Win NT & 2000
Gap handling : Appended to previous track

Used output format : User Defined Encoder
Selected bitrate : 128 kBit/s
Quality : High
Add ID3 tag : No
Command line compressor : C:\Program Files (x86)\Exact Audio Copy\Flac\flac.exe
Additional command line options : -8 -V -T "ARTIST=%artist%" -T "TITLE=%title%" -T "ALBUM=%albumtitle%" -T "DATE=%year%" -T "TRACKNUMBER=%tracknr%" -T "TOTALTRACKS=%numtracks%" -T "GENRE=%genre%" -T "ALBUMARTIST=%albumartist%" -T "ALBUM ARTIST=%albumartist%" -T "COMMENT=EAC Secure Mode, Test & Copy, AccurateRip, FLAC -8" %source%


TOC of the extracted CD

Track | Start | Length | Start sector | End sector
––––––––––––––––––––––––––––-
1 | 0:00.00 | 4:17.38 | 0 | 19312
2 | 4:17.38 | 4:18.55 | 19313 | 38717
3 | 8:36.18 | 4:30.20 | 38718 | 58987
4 | 13:06.38 | 4:03.42 | 58988 | 77254
5 | 17:10.05 | 5:42.68 | 77255 | 102972
6 | 22:52.73 | 5:27.51 | 102973 | 127548
7 | 28:20.49 | 4:54.68 | 127549 | 149666
8 | 33:15.42 | 4:28.52 | 149667 | 169818
9 | 37:44.19 | 4:01.03 | 169819 | 187896
10 | 41:45.22 | 4:28.11 | 187897 | 208007
11 | 46:13.33 | 4:35.14 | 208008 | 228646
12 | 50:48.47 | 7:53.00 | 228647 | 264121
13 | 58:41.47 | 6:13.66 | 264122 | 292162
14 | 64:55.38 | 2:49.65 | 292163 | 304902
15 | 67:45.28 | 2:41.49 | 304903 | 317026
16 | 70:27.02 | 2:11.54 | 317027 | 326905
17 | 72:38.56 | 3:07.43 | 326906 | 340973
18 | 75:46.24 | 2:46.74 | 340974 | 353497


Track 1

Filename G:\New Rips\Gary Burton - Conception (2014) [FLAC]\disc 1of2\01 - Storm.wav

Pre-gap length 0:00:02.00

Peak level 70.7 %
Extraction speed 2.0 X
Track quality 100.0 %
Test CRC DA358A71
Copy CRC DA358A71
Accurately ripped (confidence 3) [0FD59D0D] (AR v2)
Copy OK

Track 2

Filename G:\New Rips\Gary Burton - Conception (2014) [FLAC]\disc 1of2\02 - I've Just Seen Her.wav

Pre-gap length 0:00:02.00

Peak level 70.7 %
Extraction speed 2.2 X
Track quality 100.0 %
Test CRC F0C865B7
Copy CRC F0C865B7
Accurately ripped (confidence 3) [16B493AA] (AR v2)
Copy OK

Track 3

Filename G:\New Rips\Gary Burton - Conception (2014) [FLAC]\disc 1of2\03 - Fly Time Fly Sigh.wav

Pre-gap length 0:00:02.59

Peak level 89.1 %
Extraction speed 1.9 X
Track quality 99.9 %
Test CRC 96F02930
Copy CRC 96F02930
Accurately ripped (confidence 3) [CA13D608] (AR v2)
Copy OK

Track 4

Filename G:\New Rips\Gary Burton - Conception (2014) [FLAC]\disc 1of2\04 - Conception.wav

Pre-gap length 0:00:03.00

Peak level 89.1 %
Extraction speed 2.5 X
Track quality 100.0 %
Test CRC 83CBA0E3
Copy CRC 83CBA0E3
Accurately ripped (confidence 3) [D07B8DD6] (AR v2)
Copy OK

Track 5

Filename G:\New Rips\Gary Burton - Conception (2014) [FLAC]\disc 1of2\05 - Get Away Blues.wav

Pre-gap length 0:00:03.09

Peak level 89.1 %
Extraction speed 2.8 X
Track quality 100.0 %
Test CRC 75F74D30
Copy CRC 75F74D30
Accurately ripped (confidence 3) [C73D0D92] (AR v2)
Copy OK

Track 6

Filename G:\New Rips\Gary Burton - Conception (2014) [FLAC]\disc 1of2\06 - My Funny Valentine.wav

Pre-gap length 0:00:02.50

Peak level 95.8 %
Extraction speed 2.4 X
Track quality 99.9 %
Test CRC 569A6348
Copy CRC 569A6348
Accurately ripped (confidence 3) [D4866DB7] (AR v2)
Copy OK

Track 7

Filename G:\New Rips\Gary Burton - Conception (2014) [FLAC]\disc 1of2\07 - One Note.wav

Pre-gap length 0:00:03.58

Peak level 89.1 %
Extraction speed 3.1 X
Track quality 100.0 %
Test CRC 00678278
Copy CRC 00678278
Accurately ripped (confidence 3) [BA06A206] (AR v2)
Copy OK

Track 8

Filename G:\New Rips\Gary Burton - Conception (2014) [FLAC]\disc 1of2\08 - All The Things You Are.wav

Pre-gap length 0:00:02.58

Peak level 100.0 %
Extraction speed 3.2 X
Track quality 100.0 %
Test CRC 999B50AF
Copy CRC 999B50AF
Accurately ripped (confidence 3) [187C630B] (AR v2)
Copy OK

Track 9

Filename G:\New Rips\Gary Burton - Conception (2014) [FLAC]\disc 1of2\09 - Three-Four The Blues.wav

Pre-gap length 0:00:02.34

Peak level 97.7 %
Extraction speed 2.5 X
Track quality 99.9 %
Test CRC 2068F244
Copy CRC 2068F244
Accurately ripped (confidence 3) [790402E2] (AR v2)
Copy OK

Track 10

Filename G:\New Rips\Gary Burton - Conception (2014) [FLAC]\disc 1of2\10 - Move.wav

Pre-gap length 0:00:02.40

Peak level 88.5 %
Extraction speed 3.5 X
Track quality 100.0 %
Test CRC 068E8110
Copy CRC 068E8110
Accurately ripped (confidence 3) [8274DD29] (AR v2)
Copy OK

Track 11

Filename G:\New Rips\Gary Burton - Conception (2014) [FLAC]\disc 1of2\11 - Always.wav

Pre-gap length 0:00:02.11

Peak level 52.1 %
Extraction speed 2.8 X
Track quality 99.9 %
Test CRC 86FA1851
Copy CRC 86FA1851
Accurately ripped (confidence 3) [25D02124] (AR v2)
Copy OK

Track 12

Filename G:\New Rips\Gary Burton - Conception (2014) [FLAC]\disc 1of2\12 - Riot-Chorus.wav

Pre-gap length 0:00:02.60

Peak level 77.6 %
Extraction speed 3.9 X
Track quality 100.0 %
Test CRC AA1D1487
Copy CRC AA1D1487
Accurately ripped (confidence 3) [2CDCD55A] (AR v2)
Copy OK

Track 13

Filename G:\New Rips\Gary Burton - Conception (2014) [FLAC]\disc 1of2\13 - Relaxing.wav

Pre-gap length 0:00:02.36

Peak level 69.2 %
Extraction speed 4.1 X
Track quality 100.0 %
Test CRC 028D6832
Copy CRC 028D6832
Accurately ripped (confidence 3) [6E7BE3C8] (AR v2)
Copy OK

Track 14

Filename G:\New Rips\Gary Burton - Conception (2014) [FLAC]\disc 1of2\14 - It's Love Of Course.wav

Pre-gap length 0:00:02.35

Peak level 98.8 %
Extraction speed 3.7 X
Track quality 100.0 %
Test CRC CCA7EDB3
Copy CRC CCA7EDB3
Accurately ripped (confidence 3) [B6902155] (AR v2)
Copy OK

Track 15

Filename G:\New Rips\Gary Burton - Conception (2014) [FLAC]\disc 1of2\15 - Not For Me.wav

Pre-gap length 0:00:02.43

Peak level 98.8 %
Extraction speed 2.6 X
Track quality 99.9 %
Test CRC E82A4257
Copy CRC E82A4257
Accurately ripped (confidence 3) [FFB9422A] (AR v2)
Copy OK

Track 16

Filename G:\New Rips\Gary Burton - Conception (2014) [FLAC]\disc 1of2\16 - Pop Goes The Weasel.wav

Pre-gap length 0:00:02.07

Peak level 98.8 %
Extraction speed 3.6 X
Track quality 100.0 %
Test CRC D9A90E4A
Copy CRC D9A90E4A
Accurately ripped (confidence 3) [0F153BD6] (AR v2)
Copy OK

Track 17

Filename G:\New Rips\Gary Burton - Conception (2014) [FLAC]\disc 1of2\17 - Unless You're In Love.wav

Pre-gap length 0:00:02.36

Peak level 98.8 %
Extraction speed 2.9 X
Track quality 99.9 %
Test CRC D58E829B
Copy CRC D58E829B
Accurately ripped (confidence 3) [59DEFA96] (AR v2)
Copy OK

Track 18

Filename G:\New Rips\Gary Burton - Conception (2014) [FLAC]\disc 1of2\18 - Rainy Afternoon.wav

Pre-gap length 0:00:02.58

Peak level 98.1 %
Extraction speed 2.8 X
Track quality 99.9 %
Test CRC 3AF08B37
Copy CRC 3AF08B37
Accurately ripped (confidence 3) [3B3A29BB] (AR v2)
Copy OK


All tracks accurately ripped

No errors occurred

End of status report

–– CUETools DB Plugin V2.1.6

[CTDB TOCID: .MjFK.Hm4SiwugH0ryBlTOqV3YU-] found
Submit result: .MjFK.Hm4SiwugH0ryBlTOqV3YU- has been confirmed
Track | CTDB Status
1 | (2/2) Accurately ripped
2 | (2/2) Accurately ripped
3 | (2/2) Accurately ripped
4 | (2/2) Accurately ripped
5 | (2/2) Accurately ripped
6 | (2/2) Accurately ripped
7 | (2/2) Accurately ripped
8 | (2/2) Accurately ripped
9 | (2/2) Accurately ripped
10 | (2/2) Accurately ripped
11 | (2/2) Accurately ripped
12 | (2/2) Accurately ripped
13 | (2/2) Accurately ripped
14 | (2/2) Accurately ripped
15 | (2/2) Accurately ripped
16 | (2/2) Accurately ripped
17 | (2/2) Accurately ripped
18 | (2/2) Accurately ripped


==== Log checksum 655F747AE34D7BE3BE401FB759729BE980EED504FA0C00CD147FC88F1E9CF90C ====

Exact Audio Copy V1.1 from 23. June 2015

EAC extraction logfile from 6. June 2016, 7:54

Gary Burton / Conception

Used drive : MATSHITADVD+-RW SW830 Adapter: 1 ID: 0

Read mode : Secure
Utilize accurate stream : Yes
Defeat audio cache : Yes
Make use of C2 pointers : No

Read offset correction : 6
Overread into Lead-In and Lead-Out : No
Fill up missing offset samples with silence : Yes
Delete leading and trailing silent blocks : No
Null samples used in CRC calculations : Yes
Used interface : Native Win32 interface for Win NT & 2000
Gap handling : Appended to previous track

Used output format : User Defined Encoder
Selected bitrate : 128 kBit/s
Quality : High
Add ID3 tag : No
Command line compressor : C:\Program Files (x86)\Exact Audio Copy\Flac\flac.exe
Additional command line options : -8 -V -T "ARTIST=%artist%" -T "TITLE=%title%" -T "ALBUM=%albumtitle%" -T "DATE=%year%" -T "TRACKNUMBER=%tracknr%" -T "TOTALTRACKS=%numtracks%" -T "GENRE=%genre%" -T "ALBUMARTIST=%albumartist%" -T "ALBUM ARTIST=%albumartist%" -T "COMMENT=EAC Secure Mode, Test & Copy, AccurateRip, FLAC -8" %source%


TOC of the extracted CD

Track | Start | Length | Start sector | End sector
––––––––––––––––––––––––––––-
1 | 0:00.00 | 3:42.01 | 0 | 16650
2 | 3:42.01 | 4:24.27 | 16651 | 36477
3 | 8:06.28 | 3:07.00 | 36478 | 50502
4 | 11:13.28 | 5:32.50 | 50503 | 75452
5 | 16:46.03 | 4:32.70 | 75453 | 95922
6 | 21:18.73 | 4:17.02 | 95923 | 115199
7 | 25:36.00 | 4:13.00 | 115200 | 134174
8 | 29:49.00 | 4:33.21 | 134175 | 154670
9 | 34:22.21 | 11:09.42 | 154671 | 204887
10 | 45:31.63 | 3:17.14 | 204888 | 219676
11 | 48:49.02 | 6:13.29 | 219677 | 247680
12 | 55:02.31 | 4:34.32 | 247681 | 268262
13 | 59:36.63 | 4:37.69 | 268263 | 289106
14 | 64:14.57 | 3:35.26 | 289107 | 305257
15 | 67:50.08 | 9:00.09 | 305258 | 345766
16 | 76:50.17 | 2:27.35 | 345767 | 356826


Track 1

Filename G:\New Rips\Gary Burton - Conception (2014) [FLAC]\disc 2of2\01 - Joy Spring.wav

Pre-gap length 0:00:02.00

Peak level 93.3 %
Extraction speed 1.9 X
Track quality 100.0 %
Test CRC B1BC3A17
Copy CRC B1BC3A17
Accurately ripped (confidence 3) [4C15F51C] (AR v2)
Copy OK

Track 2

Filename G:\New Rips\Gary Burton - Conception (2014) [FLAC]\disc 2of2\02 - Over The Rainbow.wav

Pre-gap length 0:00:01.71

Peak level 74.1 %
Extraction speed 2.2 X
Track quality 100.0 %
Test CRC 67EAC5C8
Copy CRC 67EAC5C8
Accurately ripped (confidence 3) [739055D4] (AR v2)
Copy OK

Track 3

Filename G:\New Rips\Gary Burton - Conception (2014) [FLAC]\disc 2of2\03 - Like Someone In Love.wav

Pre-gap length 0:00:02.34

Peak level 88.7 %
Extraction speed 2.2 X
Track quality 100.0 %
Test CRC E67C1C53
Copy CRC E67C1C53
Accurately ripped (confidence 3) [FC11B33B] (AR v2)
Copy OK

Track 4

Filename G:\New Rips\Gary Burton - Conception (2014) [FLAC]\disc 2of2\04 - Minor Blues.wav

Pre-gap length 0:00:02.36

Peak level 93.3 %
Extraction speed 2.1 X
Track quality 99.9 %
Test CRC 0B5289C3
Copy CRC 0B5289C3
Accurately ripped (confidence 3) [D9DCBFEB] (AR v2)
Copy OK

Track 5

Filename G:\New Rips\Gary Burton - Conception (2014) [FLAC]\disc 2of2\05 - Our Waltz.wav

Pre-gap length 0:00:02.10

Peak level 68.8 %
Extraction speed 2.7 X
Track quality 100.0 %
Test CRC 81823B9A
Copy CRC 81823B9A
Accurately ripped (confidence 3) [B715E786] (AR v2)
Copy OK

Track 6

Filename G:\New Rips\Gary Burton - Conception (2014) [FLAC]\disc 2of2\06 - So Many Things.wav

Pre-gap length 0:00:01.58

Peak level 69.4 %
Extraction speed 2.8 X
Track quality 100.0 %
Test CRC 28CEDEAF
Copy CRC 28CEDEAF
Accurately ripped (confidence 3) [3DD7C5F9] (AR v2)
Copy OK

Track 7

Filename G:\New Rips\Gary Burton - Conception (2014) [FLAC]\disc 2of2\07 - Sir John.wav

Pre-gap length 0:00:02.40

Peak level 91.4 %
Extraction speed 3.0 X
Track quality 100.0 %
Test CRC DFA86013
Copy CRC DFA86013
Accurately ripped (confidence 3) [23816D5A] (AR v2)
Copy OK

Track 8

Filename G:\New Rips\Gary Burton - Conception (2014) [FLAC]\disc 2of2\08 - You Stepped Out Of A Dream.wav

Pre-gap length 0:00:02.07

Peak level 93.3 %
Extraction speed 3.1 X
Track quality 100.0 %
Test CRC A85BE93A
Copy CRC A85BE93A
Accurately ripped (confidence 3) [F9B43280] (AR v2)
Copy OK

Track 9

Filename G:\New Rips\Gary Burton - Conception (2014) [FLAC]\disc 2of2\09 - Relaxin.wav

Pre-gap length 0:00:04.51

Peak level 76.1 %
Extraction speed 3.6 X
Track quality 100.0 %
Test CRC BB254384
Copy CRC BB254384
Accurately ripped (confidence 3) [FEEECE9A] (AR v2)
Copy OK

Track 10

Filename G:\New Rips\Gary Burton - Conception (2014) [FLAC]\disc 2of2\10 - Nashville To Newport.wav

Pre-gap length 0:00:00.56

Peak level 97.6 %
Extraction speed 2.5 X
Track quality 99.9 %
Test CRC 6A83E014
Copy CRC 6A83E014
Accurately ripped (confidence 3) [7EB7BB09] (AR v2)
Copy OK

Track 11

Filename G:\New Rips\Gary Burton - Conception (2014) [FLAC]\disc 2of2\11 - Opus De Funk.wav

Pre-gap length 0:00:00.70

Peak level 78.6 %
Extraction speed 3.8 X
Track quality 100.0 %
Test CRC 70FD7F79
Copy CRC 70FD7F79
Accurately ripped (confidence 3) [57AEE35F] (AR v2)
Copy OK

Track 12

Filename G:\New Rips\Gary Burton - Conception (2014) [FLAC]\disc 2of2\12 - S Wonderful.wav

Pre-gap length 0:00:01.36

Peak level 88.0 %
Extraction speed 3.8 X
Track quality 100.0 %
Test CRC 743EF63C
Copy CRC 743EF63C
Accurately ripped (confidence 3) [E2F0E23A] (AR v2)
Copy OK

Track 13

Filename G:\New Rips\Gary Burton - Conception (2014) [FLAC]\disc 2of2\13 - Round Midnight.wav

Pre-gap length 0:00:01.40

Peak level 97.5 %
Extraction speed 3.9 X
Track quality 100.0 %
Test CRC DC4CAF6D
Copy CRC DC4CAF6D
Accurately ripped (confidence 3) [832E5E24] (AR v2)
Copy OK

Track 14

Filename G:\New Rips\Gary Burton - Conception (2014) [FLAC]\disc 2of2\14 - Frankie And Johnny.wav

Pre-gap length 0:00:01.39

Peak level 85.2 %
Extraction speed 3.9 X
Track quality 100.0 %
Test CRC 4A6BC9D7
Copy CRC 4A6BC9D7
Accurately ripped (confidence 3) [1B2030B0] (AR v2)
Copy OK

Track 15

Filename G:\New Rips\Gary Burton - Conception (2014) [FLAC]\disc 2of2\15 - Riot-Chorus.wav

Pre-gap length 0:00:01.12

Peak level 99.6 %
Extraction speed 3.9 X
Track quality 99.9 %
Test CRC D6B57AE1
Copy CRC D6B57AE1
Accurately ripped (confidence 3) [76873113] (AR v2)
Copy OK

Track 16

Filename G:\New Rips\Gary Burton - Conception (2014) [FLAC]\disc 2of2\16 - Last Date.wav

Pre-gap length 0:00:02.44

Peak level 86.8 %
Extraction speed 3.9 X
Track quality 100.0 %
Test CRC E7BB9845
Copy CRC E7BB9845
Accurately ripped (confidence 3) [22026018] (AR v2)
Copy OK


All tracks accurately ripped

No errors occurred

End of status report

–– CUETools DB Plugin V2.1.6

[CTDB TOCID: cbBWQ8mZGMPZH9ZGwA_Vh9Ow..Q-] found
Submit result: cbBWQ8mZGMPZH9ZGwA_Vh9Ow..Q- has been confirmed
Track | CTDB Status
1 | (1/1) Accurately ripped
2 | (1/1) Accurately ripped
3 | (1/1) Accurately ripped
4 | (1/1) Accurately ripped
5 | (1/1) Accurately ripped
6 | (1/1) Accurately ripped
7 | (1/1) Accurately ripped
8 | (1/1) Accurately ripped
9 | (1/1) Accurately ripped
10 | (1/1) Accurately ripped
11 | (1/1) Accurately ripped
12 | (1/1) Accurately ripped
13 | (1/1) Accurately ripped
14 | (1/1) Accurately ripped
15 | (1/1) Accurately ripped
16 | (1/1) Accurately ripped


==== Log checksum 8462DEA9B24CB43004E12BF2B9E5E03F93A8F55101B1DEFBC61D976AE92A1104 ====


Gary Burton - Conception (2014) {2CD Set, El Records ACMEMD277CD rec 1960-1962}



===